<?xml version="1.0" standalone="no"?>
<!DOCTYPE svg PUBLIC "-//W3C//DTD SVG 1.1//EN" "http://www.w3.org/Graphics/SVG/1.1/DTD/svg11.dtd" >
<svg xmlns="http://www.w3.org/2000/svg" xmlns:xlink="http://www.w3.org/1999/xlink" version="1.1">
<metadata></metadata>
<defs>
<font id="kayak_sanslight" horiz-adv-x="1038" >
<font-face units-per-em="2048" ascent="1638" descent="-410" />
<missing-glyph horiz-adv-x="508" />
<glyph unicode="&#xd;" horiz-adv-x="508" />
<glyph horiz-adv-x="0" />
<glyph horiz-adv-x="0" />
<glyph unicode=" "  horiz-adv-x="508" />
<glyph unicode="&#x09;" horiz-adv-x="508" />
<glyph unicode="&#xa0;" horiz-adv-x="508" />
<glyph unicode="!" horiz-adv-x="296" d="M80 68q0 28 20 48t48 20t48 -20t20 -48t-20 -48t-48 -20t-48 20t-20 48zM91 349h114v1087h-114v-1087z" />
<glyph unicode="&#x22;" horiz-adv-x="363" d="M80 1238l81 22v175h-81v-197zM202 1301l81 22v112h-81v-134z" />
<glyph unicode="#" horiz-adv-x="1197" d="M80 264h199l-25 -264h113l25 264h355l-24 -264h113l25 264h199l10 114h-198l36 381h198l11 114h-199l25 264h-113l-25 -264h-355l24 264h-113l-25 -264h-199l-10 -114h198l-36 -381h-198zM403 378l36 381h355l-36 -381h-355z" />
<glyph unicode="$" horiz-adv-x="979" d="M80 390l115 10q19 -85 100 -129l66 -35l53 439l-46 9q-131 26 -202 107q-72 80 -72 201q0 137 95 223q96 85 260 94l43 3l15 124h133l-17 -139l40 -13q175 -59 209 -221l-115 -9q-20 62 -78 98l-68 42l-50 -409l47 -10q139 -27 215 -111q76 -85 76 -212q0 -145 -101 -234 q-101 -90 -275 -99l-43 -2l-14 -117h-133l16 131l-41 13q-197 63 -228 246zM208 992q0 -152 164 -193l56 -14l50 416l-66 -9q-117 -17 -168 -86q-20 -26 -29 -60q-7 -26 -7 -54zM494 229l64 8q131 15 188 90q21 29 31 65q8 29 8 60q0 167 -182 209l-56 12z" />
<glyph unicode="%" horiz-adv-x="1409" d="M80 1189q0 115 64 183q65 69 173 69q107 0 172 -69q64 -68 64 -183t-64 -184q-65 -69 -172 -69q-108 0 -173 69q-64 69 -64 184zM194 1189q0 -59 23 -93q31 -46 100 -46q68 0 99 46q23 34 23 93q0 58 -23 92q-31 46 -99 46q-69 0 -100 -46q-23 -34 -23 -92zM385 -140 l511 1756h130l-512 -1756h-129zM856 257q0 116 64 184q65 69 172 69q108 0 172 -69q65 -68 65 -184q0 -115 -65 -183q-64 -69 -172 -69q-107 0 -172 69q-64 68 -64 183zM970 257q0 -58 23 -92q31 -46 99 -46q69 0 99 46q24 34 24 92q0 59 -24 93q-30 46 -99 46 q-68 0 -99 -46q-23 -34 -23 -93z" />
<glyph unicode="&#x26;" horiz-adv-x="1032" d="M80 443q0 250 161 368l42 30l-31 42q-65 87 -65 221q0 154 83 243q84 90 227 90t227 -90q83 -89 83 -243t-83 -243q-84 -89 -227 -89l-56 -3q-118 -15 -182 -100q-65 -84 -65 -226q0 -157 78 -243t219 -86q57 0 103 14l76 22l-113 130l86 75l108 -124l24 95q8 31 11 66 h115q-10 -121 -62 -209l-18 -32l131 -151h-151l-62 70l-36 -20q-92 -50 -212 -50q-190 0 -300 119q-111 119 -111 324zM301 1104q0 -103 50 -160q49 -58 140 -58h6q113 0 162 78q19 31 27 72q7 32 7 68q0 37 -7 69q-8 41 -27 71q-49 79 -162 79t-162 -79q-19 -30 -27 -71 q-7 -32 -7 -69z" />
<glyph unicode="'" horiz-adv-x="241" d="M80 1238l81 22v175h-81v-197z" />
<glyph unicode="(" horiz-adv-x="503" d="M314 -100q-234 808 0 1616l109 -34q-223 -774 0 -1548z" />
<glyph unicode=")" horiz-adv-x="502" d="M80 -66q223 774 0 1548l109 34q233 -808 0 -1616z" />
<glyph unicode="*" horiz-adv-x="449" d="M80 1341l51 -51l94 93l93 -93l51 51l-93 94l93 93l-51 51l-93 -93l-94 93l-51 -51l93 -93z" />
<glyph unicode="+" horiz-adv-x="726" d="M80 660h226v-226h114v226h226v115h-226v226h-114v-226h-226v-115z" />
<glyph unicode="," horiz-adv-x="241" d="M80 67v-197l81 23v174h-81z" />
<glyph unicode="-" horiz-adv-x="630" d="M80 660h470v114h-470v-114z" />
<glyph unicode="." horiz-adv-x="296" d="M80 68q0 28 20 48t48 20t48 -20t20 -48t-20 -48t-48 -20t-48 20t-20 48z" />
<glyph unicode="/" horiz-adv-x="506" d="M80 0h133l213 1756h-133z" />
<glyph unicode="0" horiz-adv-x="1149" d="M80 720q0 369 158 560q133 161 337 161t337 -161q157 -191 157 -560q0 -368 -157 -559q-133 -161 -337 -161t-337 161q-158 191 -158 559zM194 720q0 -289 100 -447q99 -159 281 -159q181 0 281 159q99 158 99 447t-99 448q-100 159 -281 159q-182 0 -281 -159 q-100 -159 -100 -448z" />
<glyph unicode="1" horiz-adv-x="538" d="M80 1208l79 -82l185 178v-1304h114v1436h-141z" />
<glyph unicode="2" d="M80 0v145l699 638l1 2q60 63 64 180v8q-3 167 -88 258t-237 91q-141 0 -225 -79t-97 -224l-114 9q18 190 133 299q117 109 303 109q198 0 316 -122q118 -123 123 -334v-6v-3v-6q-5 -167 -98 -263l-4 -3l-640 -585h737v-114h-873z" />
<glyph unicode="3" horiz-adv-x="1123" d="M80 347l114 9q18 -118 111 -180q94 -62 254 -62q179 0 274 77q96 77 96 221t-96 221q-95 77 -274 77h-98v114h98q148 0 229 65q82 66 82 184q0 119 -82 184q-81 65 -229 65q-128 0 -207 -49q-79 -50 -98 -141l-114 9q23 138 134 217q111 78 285 78q197 0 311 -97 q114 -98 114 -266q0 -161 -107 -258l-47 -43l53 -36q160 -112 160 -324q0 -191 -130 -301q-130 -111 -354 -111q-202 0 -330 93q-127 92 -149 254z" />
<glyph unicode="4" horiz-adv-x="1055" d="M80 398h510v-398h114v398h271v114h-271v287h-114v-287h-387l425 924h-126l-422 -919v-119z" />
<glyph unicode="5" horiz-adv-x="1065" d="M80 391h115q14 -133 101 -205q88 -72 235 -72q162 0 251 86t89 242t-89 242t-251 86h-426l84 667h767l-15 -115h-651l-56 -438h305h11q201 -6 318 -125q117 -118 117 -317q0 -204 -122 -323t-332 -119q-196 0 -316 104q-120 105 -135 287z" />
<glyph unicode="6" horiz-adv-x="1019" d="M80 455q0 -210 115 -333q116 -122 315 -122q198 0 314 122q115 123 115 333q0 211 -115 333q-116 122 -314 122h-15q-58 -2 -118 -20q-75 -22 -139 -64q31 96 104 214q186 268 562 285v115q-371 -17 -590 -256t-233 -643q-1 -75 -1 -86zM194 455q0 163 83 252 q82 89 233 89q150 0 232 -89q83 -89 83 -252q0 -162 -83 -252q-82 -89 -232 -89q-151 0 -233 89q-83 90 -83 252z" />
<glyph unicode="7" horiz-adv-x="1007" d="M80 1322h733l-727 -1322h130l711 1294v142h-847v-114z" />
<glyph unicode="8" horiz-adv-x="1127" d="M80 412q0 212 160 324l53 36l-48 43q-106 98 -106 258q0 168 114 266q114 97 311 97q196 0 310 -97q114 -98 114 -266q0 -160 -106 -258l-48 -43l53 -36q160 -112 160 -324q0 -191 -130 -301q-130 -111 -353 -111q-224 0 -354 111q-130 110 -130 301zM194 412 q0 -144 95 -221q96 -77 275 -77q178 0 274 77q95 77 95 221t-95 221q-96 77 -274 77q-179 0 -275 -77q-95 -77 -95 -221zM253 1073q0 -118 81 -183q82 -66 230 -66t229 66q81 65 81 183q0 119 -81 184t-229 65t-230 -65q-81 -65 -81 -184z" />
<glyph unicode="9" horiz-adv-x="1019" d="M80 984q0 -210 115 -332q116 -123 314 -123h15q58 3 118 20q75 22 139 65q-31 -96 -104 -214q-186 -268 -562 -286v-114q371 16 590 256q219 239 233 643q1 75 1 85q0 211 -115 333q-116 123 -315 123q-198 0 -314 -123q-115 -122 -115 -333zM194 984q0 163 83 252 q82 90 232 90q151 0 233 -90q83 -89 83 -252q0 -162 -83 -251q-82 -90 -233 -90q-150 0 -232 90q-83 89 -83 251z" />
<glyph unicode=":" horiz-adv-x="296" d="M80 358q0 28 20 48t48 20t48 -20t20 -48t-20 -48t-48 -20t-48 20t-20 48zM80 833q0 28 20 48t48 20t48 -20t20 -48q0 -29 -20 -48q-20 -20 -48 -20t-48 20q-20 19 -20 48z" />
<glyph unicode=";" horiz-adv-x="296" d="M80 834q0 28 20 48t48 20t48 -20t20 -48t-20 -48t-48 -20t-48 20t-20 48zM107 230l1 197h81l-1 -175z" />
<glyph unicode="&#x3c;" horiz-adv-x="497" d="M80 717l256 -255l81 80l-176 175l176 176l-81 80z" />
<glyph unicode="=" horiz-adv-x="630" d="M80 524h470v114h-470v-114zM80 791h470v114h-470v-114z" />
<glyph unicode="&#x3e;" horiz-adv-x="497" d="M80 542l81 -80l256 255l-256 256l-81 -80l175 -176z" />
<glyph unicode="?" horiz-adv-x="1030" d="M80 1094q20 159 135 250t298 91q202 0 319 -109q118 -109 118 -297q0 -161 -90 -266q-89 -106 -247 -132l-43 -7v-275h-114v388h57q154 0 238 77q85 76 85 215t-85 215q-84 77 -238 77q-138 0 -220 -62q-83 -61 -99 -174zM445 68q0 28 20 48t48 20t48 -20t20 -48t-20 -48 t-48 -20t-48 20t-20 48z" />
<glyph unicode="@" horiz-adv-x="1488" d="M80 718q0 -325 166 -515t461 -202l7 -1h11h19q312 0 488 190q176 191 176 528q0 332 -178 525q-179 193 -486 193t-486 -193q-178 -193 -178 -525zM194 718q0 288 144 446t406 158t406 -158t144 -446q0 -247 -106 -398q-18 -26 -38 -48l-3 -3q-55 -60 -124 -97l37 144 q20 80 29 182q7 73 7 165v52l1 3q0 175 -95 277q-95 101 -258 101t-258 -101q-94 -102 -94 -277t94 -276q95 -102 258 -102q66 0 126 20l97 32v-1v-2l-1 -3q0 -4 -1 -10q-3 -14 -6 -29q-9 -46 -19 -84q-32 -120 -61 -129q-84 -27 -156 -20h-3q-251 8 -388 166 q-138 158 -138 438zM506 718q0 152 85 218q34 26 78 37q35 9 75 9t75 -9q44 -11 78 -37q85 -66 85 -218t-85 -218q-34 -25 -78 -37q-35 -9 -75 -9t-75 9q-44 12 -78 37q-85 66 -85 218z" />
<glyph unicode="A" horiz-adv-x="1305" d="M80 0h121l146 425h611l146 -425h121l-494 1436h-156zM387 540l266 773l266 -773h-532z" />
<glyph unicode="B" horiz-adv-x="1118" d="M80 0h56h453q208 0 329 109q120 109 120 297q0 123 -54 215q-54 91 -154 140q158 98 158 306q0 171 -110 270q-109 99 -298 99h-500v-1436zM194 114v583h395q160 0 248 -76q87 -76 87 -215t-87 -216q-88 -76 -248 -76h-395zM194 811v511h386q169 0 243 -92q28 -35 41 -83 q10 -37 10 -80q0 -39 -8 -74q-11 -44 -35 -78q-61 -88 -200 -101q-8 -3 -86 -3h-351z" />
<glyph unicode="C" horiz-adv-x="1266" d="M80 718q0 -332 160 -525t435 -193q172 0 305 81q132 80 206 228l-106 43q-122 -238 -405 -238q-226 0 -353 160q-128 161 -128 444q0 284 128 444q127 160 353 160q281 0 403 -234l106 43q-74 148 -205 227q-131 78 -304 78q-275 0 -435 -193t-160 -525z" />
<glyph unicode="D" horiz-adv-x="1223" d="M80 0h468q275 0 435 193t160 525t-160 525t-435 193h-468v-1436zM194 114v1208h354q226 0 353 -160q128 -160 128 -444q0 -283 -128 -444q-127 -160 -353 -160h-354z" />
<glyph unicode="E" horiz-adv-x="1046" d="M80 0h886v114h-772v547h523v114h-523v547h772v114h-886v-1436z" />
<glyph unicode="F" horiz-adv-x="1046" d="M80 0h114v661h523v114h-523v547h772v114h-886v-1436z" />
<glyph unicode="G" horiz-adv-x="1316" d="M80 667q12 -310 166 -488q155 -179 412 -179q309 0 464 252v-252h114v775h-435v-114h320q0 -14 -1 -28l-3 -28q-24 -234 -144 -362q-120 -129 -315 -129q-208 0 -330 146t-134 407v102q12 261 139 407t343 146q277 0 401 -226l105 45q-75 143 -205 219t-301 76 q-265 0 -424 -178q-159 -179 -172 -489v-102z" />
<glyph unicode="H" horiz-adv-x="1121" d="M80 0h114v661h733v-661h114v1436h-114v-661h-733v661h-114v-1436z" />
<glyph unicode="I" horiz-adv-x="274" d="M80 0h114v1436h-114v-1436z" />
<glyph unicode="J" horiz-adv-x="956" d="M80 188q117 -188 357 -188q206 0 323 137q116 138 116 381v920h-114v-920q0 -193 -85 -298q-85 -106 -240 -106q-168 0 -253 124z" />
<glyph unicode="K" horiz-adv-x="1096" d="M80 0h114v516q22 27 172 197l510 -712h140l-573 799l565 635h-152l-662 -744v745h-114v-1436z" />
<glyph unicode="L" horiz-adv-x="945" d="M80 0h785v114h-671v1322h-114v-1436z" />
<glyph unicode="M" horiz-adv-x="1328" d="M80 0h114v1151l392 -1117h156l392 1117v-1151h114v1435h-135l-449 -1279l-448 1279h-136v-1435z" />
<glyph unicode="N" horiz-adv-x="1083" d="M80 0h114v1255l660 -1255h149v1434h-114v-1255l-661 1256h-148v-1435z" />
<glyph unicode="O" horiz-adv-x="1318" d="M80 718q0 -332 156 -525q155 -193 423 -193t423 193q156 193 156 525q0 333 -156 526q-155 193 -423 193t-423 -193q-156 -193 -156 -526zM194 718q0 284 123 444q124 161 342 161t342 -161q123 -160 123 -444q0 -283 -123 -444q-124 -160 -342 -160t-342 160 q-123 161 -123 444z" />
<glyph unicode="P" horiz-adv-x="1046" d="M80 0h114v652h338q201 0 318 106q116 105 116 286q0 182 -116 287q-117 105 -318 105h-452v-1436zM194 766v556h338q153 0 236 -73q84 -72 84 -205q0 -132 -84 -205q-83 -73 -236 -73h-338z" />
<glyph unicode="Q" horiz-adv-x="1318" d="M80 718q0 -332 156 -525q155 -193 423 -193h20l36 -143h111l-39 156q212 44 331 229q120 187 120 476q0 332 -156 525q-155 193 -423 193t-423 -193q-156 -193 -156 -525zM194 718q0 284 123 444q124 160 342 160t342 -160q123 -160 123 -444q0 -248 -96 -404 q-95 -154 -268 -190l-33 133h-111l35 -143q-215 3 -336 163t-121 441z" />
<glyph unicode="R" horiz-adv-x="1046" d="M80 0h114v652h329q7 -14 313 -652h126l-317 663q151 28 236 127q85 101 85 254q0 182 -116 287q-117 105 -318 105h-452v-1436zM194 766v556h338q153 0 236 -73q84 -72 84 -205q0 -132 -84 -205q-83 -73 -236 -73h-338z" />
<glyph unicode="S" horiz-adv-x="1141" d="M80 333q22 -157 150 -245q129 -88 338 -88q231 0 362 105t131 292q0 186 -131 291q-131 106 -362 106q-169 0 -262 69t-93 195t93 195t262 69q145 0 235 -51q89 -52 112 -147l115 9q-26 142 -149 223q-123 80 -313 80q-217 0 -343 -101q-126 -102 -126 -277t126 -277 t343 -102q180 0 279 -74t99 -208q0 -135 -99 -209t-279 -74q-161 0 -258 60q-96 59 -116 168z" />
<glyph unicode="T" horiz-adv-x="1154" d="M80 1322h440v-1322h114v1322h440v114h-994v-114z" />
<glyph unicode="U" horiz-adv-x="1211" d="M80 586q0 -275 139 -431q140 -155 387 -155q246 0 386 155q139 156 139 431v851h-114v-851q0 -225 -108 -348q-107 -124 -303 -124q-197 0 -304 124q-108 123 -108 348v851h-114v-851z" />
<glyph unicode="V" horiz-adv-x="1325" d="M80 1439l503 -1439h155l507 1439h-121l-464 -1315l-459 1315h-121z" />
<glyph unicode="W" horiz-adv-x="1907" d="M80 1439l381 -1439h145l348 1305l345 -1305h145l383 1439h-118l-338 -1268l-335 1268h-165l-338 -1268l-335 1268h-118z" />
<glyph unicode="X" horiz-adv-x="1340" d="M80 0h139l451 643l450 -643h140l-520 742l487 697h-139l-418 -597l-418 597h-140l488 -697z" />
<glyph unicode="Y" horiz-adv-x="1225" d="M80 1439l475 -714v-725h114v722l476 717h-137l-395 -595l-396 595h-137z" />
<glyph unicode="Z" horiz-adv-x="1210" d="M80 0h1050v114h-927l873 1183v139h-991v-114h868l-873 -1183v-139z" />
<glyph unicode="[" horiz-adv-x="467" d="M80 -150h307v114h-193v1502h193v114h-307v-1730z" />
<glyph unicode="\" horiz-adv-x="506" d="M80 1756l213 -1756h133l-213 1756h-133z" />
<glyph unicode="]" horiz-adv-x="467" d="M80 -36v-114h307v1730h-307v-114h193v-1502h-193z" />
<glyph unicode="^" horiz-adv-x="672" d="M80 1179l81 -81l175 175l175 -175l81 81l-256 256z" />
<glyph unicode="_" horiz-adv-x="691" d="M80 -6v-114h531v114h-531z" />
<glyph unicode="`" horiz-adv-x="307" d="M80 1409l84 -179l63 55l-73 158z" />
<glyph unicode="a" d="M80 473q0 -185 88 -307q88 -123 245 -155l9 -2q46 -9 97 -9t97 9l10 2q148 33 218 172v-183h114v945h-114v-181q-70 139 -221 172l-9 2q-45 8 -95 8t-94 -8l-11 -2q-157 -32 -245 -154q-89 -123 -89 -309zM194 473q0 171 85 265t240 94t240 -94t85 -264v-1 q0 -171 -85 -265t-240 -94t-240 94t-85 265z" />
<glyph unicode="b" d="M80 0h114v183q70 -139 219 -172l9 -2q46 -9 97 -9t97 9q6 1 11 2q155 32 243 155q88 122 88 307q0 186 -89 309q-88 122 -246 154l-8 2q-46 8 -96 8t-94 -8l-10 -2q-151 -33 -221 -173v673h-114v-1436zM194 473v1q0 170 85 264t240 94t240 -94t85 -265t-85 -265t-240 -94 t-240 94t-85 265z" />
<glyph unicode="c" horiz-adv-x="967" d="M80 473q0 -219 118 -346t321 -127q121 0 217 49q95 50 151 141l-105 47q-84 -123 -263 -123q-155 0 -240 94t-85 265t85 265t240 94q178 0 262 -121l105 48q-57 90 -151 138q-96 49 -216 49q-203 0 -321 -127t-118 -346z" />
<glyph unicode="d" d="M80 473q0 -185 88 -307q88 -123 245 -155l9 -2q46 -9 97 -9t97 9l10 2q148 33 218 172v-183h114v1436h-114v-672q-70 139 -221 172l-9 2q-45 8 -95 8t-96 -8l-9 -2q-157 -32 -245 -154q-89 -123 -89 -309zM194 473q0 171 85 265t240 94t240 -94t85 -264v-1 q0 -171 -85 -265t-240 -94t-240 94t-85 265z" />
<glyph unicode="e" d="M80 463q3 -214 123 -339q121 -124 327 -124q127 0 230 48q102 48 160 135l-104 51q-93 -120 -286 -120q-134 0 -218 66t-108 189q-5 25 -8 61h762v52q-1 48 -8 94q-27 174 -142 272q-114 98 -289 98q-203 0 -321 -127t-118 -346v-10zM197 533q3 35 10 63q27 114 108 175 q80 61 204 61t204 -61t108 -175l1 -8q2 -5 3 -10l2 -14q3 -17 4 -31h-644z" />
<glyph unicode="f" horiz-adv-x="694" d="M80 832h146v-832h114v832h133v114h-133v17q0 157 72 249q71 92 202 107v115q-181 -16 -284 -141q-104 -125 -104 -330v-17h-146v-114z" />
<glyph unicode="g" d="M80 473q0 -185 88 -307q88 -123 245 -155l9 -2q46 -9 97 -9t97 9l10 2q148 33 218 172v-265q0 -171 -94 -265q-93 -94 -263 -94q-198 0 -291 126l-104 -51q124 -189 395 -189q218 0 344 127q127 127 127 346v1028h-114v-182q-70 139 -221 172l-9 2q-45 8 -95 8t-94 -8 l-11 -2q-157 -32 -245 -154q-89 -123 -89 -309zM194 473q0 171 85 265t240 94t240 -94t85 -264v-1q0 -171 -85 -265t-240 -94t-240 94t-85 265z" />
<glyph unicode="h" horiz-adv-x="953" d="M80 0h114v525q11 149 83 228t199 79q137 0 210 -93t73 -266v-473h114v473q0 154 -57 267q-57 114 -161 166q-79 40 -179 40q-101 0 -179 -40q-62 -34 -103 -98v628h-114v-1436z" />
<glyph unicode="i" horiz-adv-x="296" d="M80 1249q0 -28 20 -48t48 -20t48 20t20 48t-20 48t-48 20t-48 -20t-20 -48zM91 0h114v946h-114v-946z" />
<glyph unicode="j" horiz-adv-x="572" d="M80 -422v-115q187 16 293 145q108 129 108 340v996h-115v-996q0 -163 -74 -259q-75 -96 -212 -111zM355 1249q0 -28 20 -48t49 -20q28 0 48 20t20 48t-20 48t-48 20q-29 0 -49 -20t-20 -48z" />
<glyph unicode="k" horiz-adv-x="932" d="M80 0h114v278q6 7 34 39q28 33 60 71q85 99 102 119l326 -507h136l-385 599q4 4 34 40q34 40 74 88q112 134 183 218h-149q-78 -93 -242 -287q-149 -177 -173 -205v983h-114v-1436z" />
<glyph unicode="l" horiz-adv-x="274" d="M80 0h114v1436h-114v-1436z" />
<glyph unicode="m" horiz-adv-x="1632" d="M80 0v945h114v-137q41 64 103 98q78 40 179 40q100 0 179 -40q118 -59 174 -195q42 138 147 195q78 40 178 40q101 0 180 -40q104 -53 161 -166t57 -267v-473h-114v473q0 173 -74 266q-73 93 -210 93q-126 0 -198 -80q-73 -79 -83 -228v-96v-428h-114v473q0 173 -73 266 t-210 93q-127 0 -199 -79t-83 -228v-525h-114z" />
<glyph unicode="n" horiz-adv-x="953" d="M80 0h114v526q11 148 83 227q73 79 198 79q137 0 211 -93q73 -93 73 -266v-473h114v473q0 154 -57 267t-161 166q-79 40 -180 40q-100 0 -178 -40q-62 -34 -103 -97v136h-114v-945z" />
<glyph unicode="o" d="M80 473q0 -219 118 -346t321 -127t321 127t118 346t-118 346t-321 127t-321 -127t-118 -346zM194 473q0 171 85 265t240 94t240 -94t85 -265t-85 -265t-240 -94t-240 94t-85 265z" />
<glyph unicode="p" d="M80 -490h114v673q70 -140 221 -173l8 -1q47 -9 96 -9q50 0 94 8l11 3q157 31 245 154q89 123 89 308t-88 308q-88 122 -245 155l-9 2q-46 8 -97 8t-97 -8l-10 -2q-148 -34 -218 -172v182h-114v-1436zM194 473v1q0 171 85 265q85 93 240 93t240 -94t85 -265t-85 -265 t-240 -94t-240 94t-85 265z" />
<glyph unicode="q" d="M80 473q0 -185 89 -308q88 -123 245 -154l11 -3q44 -8 94 -8q49 0 95 9l9 1q151 33 221 173v-673h114v1436h-114v-182q-70 138 -218 172l-10 2q-46 8 -97 8t-97 -8l-9 -2q-157 -33 -245 -155q-88 -123 -88 -308zM194 473q0 171 85 265t240 94t240 -93q85 -94 85 -265v-1 q0 -171 -85 -265t-240 -94t-240 94t-85 265z" />
<glyph unicode="r" horiz-adv-x="547" d="M80 0h114v524h2q12 133 82 211q70 79 189 93v114q-23 -2 -45 -6l-10 -2q-148 -34 -218 -173v183h-114v-944z" />
<glyph unicode="s" horiz-adv-x="866" d="M80 206q23 -89 103 -143q93 -63 246 -63q182 0 277 86q80 73 80 185t-80 184q-95 87 -277 87q-134 0 -190 56q-21 20 -30 48q-7 19 -7 41q0 21 7 41q9 27 30 48q56 56 190 56q92 0 149 -28q44 -22 63 -59l119 9q-10 34 -28 63q-22 35 -57 62q-88 67 -246 67 q-174 0 -265 -83q-76 -69 -76 -176t76 -177q91 -83 265 -83q143 0 203 -60q23 -22 33 -52q7 -21 7 -44t-7 -44q-10 -30 -33 -52q-60 -61 -203 -61q-104 0 -165 33q-48 25 -67 69z" />
<glyph unicode="t" horiz-adv-x="577" d="M80 826l152 -18v-451v-51v-29q0 -126 70 -202q71 -75 189 -75h6v114h-6q-145 0 -145 163v80v52v399l151 18v113l-151 -18v357h-114v-357l-152 18v-113z" />
<glyph unicode="u" horiz-adv-x="955" d="M80 473q0 -154 57 -267q57 -114 160 -166q80 -40 180 -40t179 39q63 35 104 101v-139h115v945h-115v-524h-1q-11 -150 -83 -229t-199 -79q-137 0 -210 93q-73 92 -73 266v473h-114v-473z" />
<glyph unicode="v" horiz-adv-x="1000" d="M80 945l339 -945h159l342 945h-122l-300 -829l-297 829h-121z" />
<glyph unicode="w" horiz-adv-x="1520" d="M80 945l273 -945h149l247 846l245 -846h170l276 945h-119l-242 -829l-239 829h-181l-231 -793l-229 793h-119z" />
<glyph unicode="x" horiz-adv-x="984" d="M80 0h139l273 389l42 -60l230 -329h140l-322 459l-20 30l319 456h-139l-250 -357l-42 60l-208 297h-139l299 -427l20 -29z" />
<glyph unicode="y" horiz-adv-x="953" d="M80 473q0 -154 57 -268q57 -113 160 -165q80 -40 180 -40t179 39q62 34 103 98v-240q0 -152 -83 -235t-233 -83q-172 0 -254 106l-104 -51q113 -169 358 -169q199 0 314 116q116 116 116 316v1048h-114v-525q-11 -149 -83 -227q-73 -79 -199 -79q-137 0 -210 92 q-73 93 -73 267v472h-114v-472z" />
<glyph unicode="z" horiz-adv-x="943" d="M80 0h783v114h-643l638 702v130h-765v-114h625l-638 -702v-130z" />
<glyph unicode="{" horiz-adv-x="804" d="M80 638v60q172 5 223 71t51 133v468q0 74 77 141.5t185 67.5h108v-50h-90q-61 0 -107 -33.5t-47 -91.5v-500q0 -83 -60.5 -158.5t-142.5 -76.5v-2q82 -1 143 -76t61 -158l-1 -500q1 -58 47 -91.5t107 -33.5h90v-50h-108q-108 0 -184.5 67.5t-77.5 141.5v468q0 66 -51 132 t-223 71z" />
<glyph unicode="|" horiz-adv-x="363" d="M80 -196h203v1797h-203v-1797z" />
<glyph unicode="}" horiz-adv-x="804" d="M80 -192h90q61 0 107 33.5t47 91.5l-1 500q0 83 61 158t144 76v2q-83 1 -143.5 76.5t-60.5 158.5v500q-1 58 -47 91.5t-107 33.5h-90v50h108q108 0 185 -67.5t77 -141.5v-468q0 -67 51 -133t223 -71v-60q-172 -5 -223 -71t-51 -132v-468q-1 -74 -77.5 -141.5 t-184.5 -67.5h-108v50z" />
<glyph unicode="~" horiz-adv-x="989" d="M80 556v156q64 73 123 99t114 26q64 0 181.5 -49.5t172.5 -49.5q52 0 108.5 28t129.5 112v-156q-63 -72 -122 -97.5t-116 -25.5q-60 0 -177.5 48.5t-176.5 48.5q-51 0 -107.5 -28t-129.5 -112z" />
<glyph unicode="&#xa1;" horiz-adv-x="296" d="M80 1368q0 28 20 48t48 20t48 -20t20 -48t-20 -48t-48 -20t-48 20t-20 48zM91 0h114v1087h-114v-1087z" />
<glyph unicode="&#xa2;" horiz-adv-x="967" d="M80 717q0 -171 75 -289q74 -116 208 -160l-33 -268h134l29 245h13l13 -1q121 0 217 50q95 49 151 140l-105 48q-84 -123 -263 -123h-6h-6l86 711q123 -21 188 -115l105 49q-93 148 -279 179l30 252h-133l-30 -246q-183 -15 -289 -140q-105 -125 -105 -332zM194 717 q0 154 69 246t197 109l-83 -687q-183 75 -183 332z" />
<glyph unicode="&#xa3;" horiz-adv-x="1157" d="M80 0l143 1124q15 147 128 230q114 82 302 82q173 0 286 -73q112 -73 138 -202l-115 -9q-20 72 -82 115q-80 55 -227 55q-142 0 -224 -54q-83 -55 -92 -155v-4l-27 -210h316l-15 -114h-316l-24 -185h316l-15 -114h-315l-48 -372h816l-15 -114h-930z" />
<glyph unicode="&#xa4;" horiz-adv-x="929" d="M80 413l118 117q-32 46 -48 103q-12 42 -12 84q0 44 13 87q16 55 47 99l-118 118l80 81l118 -118q44 30 99 46q44 14 89 14q41 0 83 -12q57 -17 102 -48l118 118l80 -81l-117 -117q31 -46 48 -102q12 -42 12 -85q0 -42 -12 -85q-17 -56 -48 -102l117 -117l-80 -81 l-118 118q-45 -32 -101 -48q-42 -12 -85 -12q-42 0 -85 12q-57 16 -102 48l-118 -118zM242 716q0 -28 9 -56q16 -59 57 -100q41 -40 99 -57q29 -8 58 -8t58 8q58 17 99 57q40 41 57 99q9 29 9 58t-9 58q-17 58 -57 99q-41 40 -100 57q-29 8 -58 8t-58 -9q-58 -17 -98 -56 q-39 -40 -56 -98q-10 -30 -10 -60z" />
<glyph unicode="&#xa5;" horiz-adv-x="1225" d="M80 1439l475 -714v-158h-168l-15 -114h183v-453h114v453h169l15 114h-184v155l476 717h-137l-395 -595l-396 595h-137z" />
<glyph unicode="&#xa6;" horiz-adv-x="320" d="M80 371h160v-789h-160v789zM80 789v789h160v-789h-160z" />
<glyph unicode="&#xa7;" horiz-adv-x="1090" d="M80 217l102 8q25 -123 232 -123q112 0 173 40q62 40 62 113q0 72 -62 112q-61 40 -173 40q-164 0 -250 78q-72 65 -72 166t72 166q86 78 250 78q141 0 226 -59t94 -162l3 -28l27 6q144 28 144 144q0 73 -61 113q-62 40 -174 40q-164 0 -249 78q-72 65 -72 166 q0 100 72 166q85 77 249 77q135 0 219 -53q84 -54 99 -150l-102 -8q-26 109 -216 109q-104 0 -162 -37q-57 -37 -57 -104q0 -68 57 -105q58 -37 162 -37q172 0 262 -81q75 -69 75 -174t-75 -173q-90 -81 -262 -81q-178 0 -266 84q-32 31 -50 72q-13 30 -18 62l-4 28l-27 -8 q-64 -17 -92 -57q-22 -31 -22 -72q0 -68 58 -105q57 -37 162 -37q172 0 261 -81q76 -68 76 -173t-76 -174q-89 -81 -261 -81q-175 0 -263 81q-33 31 -51 72q-15 30 -20 64zM434 794l9 -35q11 -39 42 -65q42 -35 118 -46l34 -5l-6 34q-8 41 -40 68q-42 35 -121 44z" />
<glyph unicode="&#xa8;" horiz-adv-x="679" d="M80 1722q0 -34 24 -57q24 -24 57 -24q34 0 58 24q24 23 24 57t-24 58t-58 24q-33 0 -57 -24t-24 -58zM436 1722q0 -34 24 -57q24 -24 57 -24q34 0 58 24q24 23 24 57t-24 58t-58 24q-33 0 -57 -24t-24 -58z" />
<glyph unicode="&#xa9;" horiz-adv-x="1488" d="M80 718q0 338 176 528t488 190t488 -190t176 -528q0 -332 -178 -525q-179 -193 -486 -193t-486 193q-178 193 -178 525zM194 718q0 -288 144 -446t406 -158t406 158t144 446t-144 446t-406 158t-406 -158t-144 -446zM441 718q0 158 85 249q86 91 232 91q171 0 257 -124 l-106 -49q-29 33 -73 48q-35 11 -78 11q-117 0 -167 -81q-20 -32 -29 -74q-7 -33 -7 -71t7 -71q9 -42 29 -73q50 -82 167 -82q43 0 78 12q45 15 74 48l107 -48q-86 -126 -259 -126q-146 0 -232 92q-85 91 -85 248z" />
<glyph unicode="&#xaa;" horiz-adv-x="648" />
<glyph unicode="&#xab;" horiz-adv-x="764" d="M80 717l256 -255l81 80l-176 175l176 176l-81 80zM348 717l255 256l81 -80l-175 -176l175 -175l-81 -80z" />
<glyph unicode="&#xac;" horiz-adv-x="1000" d="M80 667v100h840v-491l-1 -1h-98v392h-741z" />
<glyph unicode="&#xad;" horiz-adv-x="630" d="M80 660h470v114h-470v-114z" />
<glyph unicode="&#xae;" horiz-adv-x="1488" d="M80 718q0 338 176 528t488 190t488 -190t176 -528q0 -332 -178 -525q-179 -193 -486 -193t-486 193q-178 193 -178 525zM194 718q0 -288 144 -446t406 -158t406 158t144 446t-144 446t-406 158t-406 -158t-144 -446zM509 393v673h243q106 0 170 -58q64 -59 64 -156 q0 -101 -67 -160l-26 -22l92 -277h-120l-81 244h-161v-244h-114zM623 751h141q45 3 72 22q35 25 35 79q0 56 -39 81q-30 19 -80 19h-129v-201z" />
<glyph unicode="&#xaf;" horiz-adv-x="691" d="M80 1340h531v114h-531v-114z" />
<glyph unicode="&#xb0;" horiz-adv-x="716" d="M80 1164q0 116 81.5 197t197.5 81q115 0 196 -81.5t81 -196.5q0 -114 -82 -196t-197 -82q-117 0 -197 81t-80 197zM150 1163q0 -87 61 -147t148 -60t147 60t60 147t-60.5 148t-146.5 61t-147.5 -61t-61.5 -148z" />
<glyph unicode="&#xb1;" horiz-adv-x="726" d="M80 802h226v-226h114v226h226v114h-226v226h-114v-226h-226v-114zM127 407v114h471v-114h-471z" />
<glyph unicode="&#xb2;" horiz-adv-x="1014" />
<glyph unicode="&#xb3;" horiz-adv-x="1014" />
<glyph unicode="&#xb4;" horiz-adv-x="307" d="M80 1285l64 -55l83 179l-73 34z" />
<glyph unicode="&#xb5;" horiz-adv-x="955" d="M80 -490h114v609q45 -51 103 -80q80 -40 180 -40t179 39q63 35 104 101v-139h115v944h-115v-524h-1q-11 -149 -83 -228t-199 -79q-137 0 -210 92q-73 93 -73 267v472h-114v-1434z" />
<glyph unicode="&#xb6;" horiz-adv-x="996" d="M80 1086q0 157 107.5 253t285.5 96h443v-70h-127v-1365h-82v1365h-166v-1365h-84v738q-174 8 -275.5 102.5t-101.5 245.5z" />
<glyph unicode="&#xb7;" horiz-adv-x="296" d="M80 717q0 29 20 49q20 19 48 19t48 -19q20 -20 20 -49q0 -28 -20 -48t-48 -20t-48 20t-20 48z" />
<glyph unicode="&#xb8;" horiz-adv-x="412" d="M80 -319q23 -12 51 -17q21 -4 40 -4q46 0 80 21q54 32 68 102q13 69 -25 119q-24 32 -66 49l-1 50l-102 2l5 -132l39 -8q32 -6 45 -22q10 -14 5 -39q-4 -25 -20 -34q-17 -11 -49 -5q-14 3 -26 9z" />
<glyph unicode="&#xb9;" horiz-adv-x="1014" />
<glyph unicode="&#xba;" horiz-adv-x="718" />
<glyph unicode="&#xbb;" horiz-adv-x="764" d="M80 542l175 175l-175 176l81 80l256 -256l-256 -255zM348 542l80 -80l256 255l-256 256l-80 -80l175 -176z" />
<glyph unicode="&#xbc;" horiz-adv-x="1708" />
<glyph unicode="&#xbd;" horiz-adv-x="1964" />
<glyph unicode="&#xbe;" horiz-adv-x="1708" />
<glyph unicode="&#xbf;" horiz-adv-x="1030" d="M80 406q0 161 89 266q90 106 248 132l43 7v275h114v-388h-57q-154 0 -238 -77q-85 -76 -85 -215t85 -216q84 -76 238 -76q138 0 220 62q83 61 99 174l114 -9q-20 -159 -135 -250t-298 -91q-202 0 -320 109q-117 109 -117 297zM449 1367q0 28 20 48t48 20t48 -20t20 -48 t-20 -48t-48 -20t-48 20t-20 48z" />
<glyph unicode="&#xc0;" horiz-adv-x="1305" d="M80 0h121l146 426h611l147 -426h120l-494 1436h-156zM80 0h121l146 425h611l146 -425h121l-494 1436h-156zM376 540l35 71l242 701l243 -705l22 -67h-542zM387 540l266 773l266 -773h-532zM534 1825l42 -160l119 -26l-82 186h-79z" />
<glyph unicode="&#xc1;" horiz-adv-x="1305" d="M80 0h121l146 426h611l147 -426h120l-494 1436h-156zM80 0h121l146 425h611l146 -425h121l-494 1436h-156zM387 540l266 772l243 -705l22 -67h-531zM387 540l266 773l266 -773h-532zM611 1639l119 26l42 160h-79z" />
<glyph unicode="&#xc2;" horiz-adv-x="1305" d="M80 0h121l146 426h611l147 -426h120l-494 1436h-156zM80 0h121l146 425h611l146 -425h121l-494 1436h-156zM387 540l266 772l241 -701l36 -71h-543zM387 540l266 773l266 -773h-532zM461 1697l75 -74l122 123l123 -123l74 74l-102 103l-95 64l-94 -64z" />
<glyph unicode="&#xc3;" horiz-adv-x="1305" d="M80 0h121l146 426h611l147 -426h120l-494 1436h-156zM80 0h121l146 425h611l147 -425h120l-494 1436h-156zM387 540l266 772l241 -701l36 -71h-543zM387 540l266 773l266 -773h-532zM475 1648l12 -7q14 -8 28 -11q9 -3 20 -3q34 0 107 34l31 14q17 8 32 12q35 12 65 12 q15 0 30 -3l30 -6v116l-12 7q-13 8 -27 12q-10 2 -21 2q-34 0 -107 -34l-31 -14q-17 -7 -31 -12q-36 -12 -66 -12q-15 0 -29 3l-31 6v-116z" />
<glyph unicode="&#xc4;" horiz-adv-x="1305" d="M80 0h121l146 425h611l147 -425h120l-494 1436h-156zM387 540l266 773l266 -773h-532zM393 1723q0 -33 24 -57t58 -24q33 0 57 24t24 57q0 34 -24 58t-57 24q-34 0 -58 -24t-24 -58zM749 1723q0 -33 24 -57t58 -24q33 0 57 24t24 57q0 34 -24 58t-57 24q-34 0 -58 -24 t-24 -58z" />
<glyph unicode="&#xc5;" horiz-adv-x="1305" d="M80 0h121l146 426h611l147 -426h120l-494 1436h-156zM80 0h121l146 426h611l146 -426h121l-494 1436h-156zM387 540l266 772l241 -701l36 -71h-543zM387 540l266 773l266 -773h-532zM534 1725q0 -49 34 -84q35 -35 85 -35q49 0 84 35t35 84q0 50 -35 84q-35 35 -84 35 q-50 0 -85 -35q-34 -34 -34 -84zM596 1725q0 24 16 40q17 17 41 17q23 0 40 -17q17 -16 17 -40q0 -23 -17 -40t-40 -17q-24 0 -41 17q-16 17 -16 40z" />
<glyph unicode="&#xc6;" horiz-adv-x="1669" d="M80 0h121l146 426h357v-426h885v114h-771v547h522v114h-522v548h771v114h-885v-1h-130zM387 540l270 783h47v-783h-317z" />
<glyph unicode="&#xc7;" horiz-adv-x="1266" d="M80 718q0 -312 140 -502q140 -189 387 -213l23 -2l4 -116l31 -6q24 -5 34 -17q8 -11 5 -31q-4 -20 -16 -27q-14 -8 -38 -3q-12 2 -21 6l-34 -71q18 -9 40 -13q16 -3 31 -3q35 0 63 16q42 26 53 80q10 54 -20 94q-19 25 -51 38l-1 53q161 8 284 88q122 79 192 220l-106 43 q-122 -238 -405 -238q-226 0 -353 160q-128 161 -128 444q0 284 128 444q127 160 353 160q281 0 403 -234l106 43q-74 149 -205 227q-131 79 -304 79q-275 0 -435 -193t-160 -526z" />
<glyph unicode="&#xc8;" horiz-adv-x="1046" d="M80 0h886v114h-772v547h523v114h-523v547h772v114h-886v-1436zM437 1825l42 -160l119 -26l-82 186h-79z" />
<glyph unicode="&#xc9;" horiz-adv-x="1046" d="M80 0h886v114h-772v547h523v114h-523v547h772v114h-886v-1436zM448 1639l119 26l41 160h-79z" />
<glyph unicode="&#xca;" horiz-adv-x="1046" d="M80 0h886v114h-772v547h523v114h-523v547h772v114h-886v-1436zM331 1697l75 -74l122 122l123 -122l75 74l-103 103l-95 64l-94 -64z" />
<glyph unicode="&#xcb;" horiz-adv-x="1046" d="M80 0h886v114h-772v547h523v114h-523v547h772v114h-886v-1436zM263 1722q0 -33 24 -57t58 -24t57 24q24 24 24 57q0 34 -24 58q-23 24 -57 24t-58 -24t-24 -58zM619 1722q0 -33 24 -57t58 -24q33 0 57 24t24 57q0 34 -24 58t-57 24q-34 0 -58 -24t-24 -58z" />
<glyph unicode="&#xcc;" horiz-adv-x="320" d="M80 1824l42 -159l118 -26l-81 185h-79zM119 0h114v1436h-114v-1436z" />
<glyph unicode="&#xcd;" horiz-adv-x="320" d="M80 1639l119 26l41 159h-79zM88 0h114v1436h-114v-1436z" />
<glyph unicode="&#xce;" horiz-adv-x="554" d="M80 1697l74 -75l123 123l123 -123l74 75l-103 103l-94 63l-94 -63zM214 0h115v1436h-115v-1436z" />
<glyph unicode="&#xcf;" horiz-adv-x="679" d="M80 1722q0 -34 24 -57q24 -24 57 -24q34 0 58 24q24 23 24 57t-24 58t-58 24q-33 0 -57 -24t-24 -58zM282 0h114v1436h-114v-1436zM436 1722q0 -34 24 -57q24 -24 57 -24q34 0 58 24q24 23 24 57t-24 58t-58 24q-33 0 -57 -24t-24 -58z" />
<glyph unicode="&#xd0;" horiz-adv-x="1350" d="M80 661v114h128v661h468q275 0 434 -193q160 -193 160 -525t-160 -525q-159 -193 -434 -193h-468v661h-128zM322 114h354q225 0 353 160q127 161 127 444q0 284 -127 444q-128 160 -353 160h-354v-547h240v-114h-240v-547z" />
<glyph unicode="&#xd1;" horiz-adv-x="1083" d="M80 1h114v1255l661 -1256h148v1435h-114v-1255l-661 1256h-148v-1435zM364 1648l12 -8q13 -8 28 -11q9 -2 20 -2q34 0 107 33l31 14q17 8 31 13q36 12 66 12q15 0 29 -3l31 -7v116l-12 8q-13 8 -28 11q-9 2 -20 2q-34 0 -107 -34l-31 -13q-17 -8 -31 -13q-36 -12 -66 -12 q-15 0 -29 3l-31 7v-116z" />
<glyph unicode="&#xd2;" horiz-adv-x="1318" d="M80 718q0 333 156 526q155 193 423 193t423 -193q156 -193 156 -526q0 -332 -156 -525q-155 -193 -423 -193t-423 193q-156 193 -156 525zM194 718q0 -283 123 -444q124 -160 342 -160t342 160q123 161 123 444q0 284 -123 444q-124 161 -342 161t-342 -161 q-123 -160 -123 -444zM574 1825l41 -160l119 -26l-81 186h-79z" />
<glyph unicode="&#xd3;" horiz-adv-x="1318" d="M80 718q0 333 156 526q155 193 423 193t423 -193q156 -193 156 -526q0 -332 -156 -525q-155 -193 -423 -193t-423 193q-156 193 -156 525zM194 718q0 -283 123 -444q124 -160 342 -160t342 160q123 161 123 444q0 284 -123 444q-124 161 -342 161t-342 -161 q-123 -160 -123 -444zM584 1639l119 26l41 160h-79z" />
<glyph unicode="&#xd4;" horiz-adv-x="1318" d="M80 718q0 333 156 526q155 193 423 193t423 -193q156 -193 156 -526q0 -332 -156 -525q-155 -193 -423 -193t-423 193q-156 193 -156 525zM194 718q0 -283 123 -444q124 -160 342 -160t342 160q123 161 123 444q0 284 -123 444q-124 161 -342 161t-342 -161 q-123 -160 -123 -444zM467 1697l75 -74l123 123l122 -123l75 74l-103 103l-94 64l-95 -64z" />
<glyph unicode="&#xd5;" horiz-adv-x="1318" d="M80 718q0 333 156 526q155 193 423 193t423 -193q156 -193 156 -526q0 -332 -156 -525q-155 -193 -423 -193t-423 193q-156 193 -156 525zM194 718q0 -283 123 -444q124 -160 342 -160t342 160q123 161 123 444q0 284 -123 444q-124 161 -342 161t-342 -161 q-123 -160 -123 -444zM481 1648l13 -7q13 -8 27 -12q10 -2 21 -2q33 0 106 34l31 14q18 7 32 12q36 12 65 12q15 0 30 -3l31 -6v115l-13 8q-13 8 -27 11q-10 3 -21 3q-33 0 -106 -34l-31 -14q-18 -8 -32 -12q-36 -12 -65 -12q-15 0 -30 3l-31 6v-116z" />
<glyph unicode="&#xd6;" horiz-adv-x="1318" d="M80 718q0 333 156 526q155 193 423 193t423 -193q156 -193 156 -526q0 -332 -156 -525q-155 -193 -423 -193t-423 193q-156 193 -156 525zM194 718q0 -283 123 -444q124 -160 342 -160t342 160q123 161 123 444q0 284 -123 444q-124 161 -342 161t-342 -161 q-123 -160 -123 -444zM400 1723q0 -34 24 -58q23 -24 57 -24t58 24q23 24 23 58q0 33 -23 57q-24 24 -58 24t-57 -24q-24 -24 -24 -57zM756 1723q0 -34 23 -58q24 -24 58 -24t57 24q24 24 24 58q0 33 -24 57q-23 24 -57 24t-58 -24q-23 -24 -23 -57z" />
<glyph unicode="&#xd7;" horiz-adv-x="852" d="M80 470l247 247l-247 248l99 98l247 -247l248 247l98 -99l-247 -247l247 -247l-99 -99l-247 247l-247 -247z" />
<glyph unicode="&#xd8;" horiz-adv-x="1318" d="M80 718q0 -282 115 -467q114 -184 317 -234l-21 -177h133l20 160h15q268 0 423 193q156 193 156 525q0 280 -112 464q-112 182 -311 235l22 179h-133l-20 -160l-25 1q-268 0 -423 -193q-156 -193 -156 -526zM194 718q0 284 123 444q124 160 342 160h11l-144 -1190 q-158 45 -245 197q-87 153 -87 389zM657 114l144 1188q154 -48 238 -199q85 -152 85 -385q0 -284 -123 -444q-124 -160 -342 -160h-2z" />
<glyph unicode="&#xd9;" horiz-adv-x="1211" d="M80 586v851h114v-851q0 -225 108 -348q107 -124 304 -124q196 0 303 124q108 123 108 348v851h114v-851q0 -275 -139 -431q-140 -155 -386 -155q-247 0 -387 155q-139 156 -139 431zM520 1825l42 -160l119 -26l-82 186h-79z" />
<glyph unicode="&#xda;" horiz-adv-x="1211" d="M80 586v851h114v-851q0 -225 108 -348q107 -124 304 -124q196 0 303 124q108 123 108 348v851h114v-851q0 -275 -139 -431q-140 -155 -386 -155q-247 0 -387 155q-139 156 -139 431zM531 1639l118 26l42 160h-79z" />
<glyph unicode="&#xdb;" horiz-adv-x="1211" d="M80 586v851h114v-851q0 -225 108 -348q107 -124 304 -124q196 0 303 124q108 123 108 348v851h114v-851q0 -275 -139 -431q-140 -155 -386 -155q-247 0 -387 155q-139 156 -139 431zM414 1697l74 -74l123 123l123 -123l74 74l-103 103l-94 64l-94 -64z" />
<glyph unicode="&#xdc;" horiz-adv-x="1211" d="M80 586v851h114v-851q0 -225 108 -348q107 -124 304 -124q196 0 303 124q108 123 108 348v851h114v-851q0 -275 -139 -431q-140 -155 -386 -155q-247 0 -387 155q-139 156 -139 431zM346 1722q0 -33 24 -57t58 -24q33 0 57 24t24 57q0 34 -24 58t-57 24q-34 0 -58 -24 t-24 -58zM702 1722q0 -33 24 -57t58 -24q33 0 57 24t24 57q0 34 -24 58t-57 24q-34 0 -58 -24t-24 -58z" />
<glyph unicode="&#xdd;" horiz-adv-x="1225" d="M80 1439l475 -714v-725h114v722l476 717h-137l-395 -595l-396 595h-137zM537 1641l119 26l42 160h-79z" />
<glyph unicode="&#xde;" horiz-adv-x="836" d="M80 0v1436h114v-376h272q134 0 212 -92t78 -251t-78 -251t-212 -92h-272v-374h-114zM194 488h272q30 0 55 8q33 10 57 32q63 57 63 189t-63 189q-24 22 -57 32q-25 8 -55 8h-272v-458z" />
<glyph unicode="&#xdf;" horiz-adv-x="1019" d="M80 3v818q0 346 152 501q116 118 310 118q309 0 309 -249q0 -97 -73 -188q-28 -35 -72 -75l-40 -35l-40 -32q-72 -60 -100 -88l-3 -3q-38 -35 -38 -101q0 -78 54 -113q41 -26 110 -26q132 0 211 -72t79 -193t-79 -193t-211 -72q-107 0 -181 48q-73 49 -98 134l116 12 q37 -80 163 -80q74 0 118 29q58 37 58 122q0 84 -58 122q-44 29 -118 29q-126 0 -202 69t-76 184q0 114 73 183l1 1q34 35 109 96l34 28l33 28q36 32 59 58q57 67 57 128q0 75 -43 105q-42 30 -152 30l-18 -1h-21q-27 -2 -51 -7q-67 -15 -116 -56q-142 -117 -142 -441v-818 h-114z" />
<glyph unicode="&#xe0;" d="M80 473q0 -185 88 -307q88 -123 245 -155l9 -2q46 -9 97 -9t97 9l10 2q148 33 218 172v-183h114v945h-114v-181q-70 139 -221 172l-9 2q-45 8 -95 8t-94 -8l-11 -2q-157 -32 -245 -154q-89 -123 -89 -309zM194 473q0 171 85 265t240 94t240 -94t85 -264v-1 q0 -171 -85 -265t-240 -94t-240 94t-85 265zM433 1334l42 -159l119 -26l-81 185h-80z" />
<glyph unicode="&#xe1;" d="M80 473q0 -185 88 -307q88 -123 245 -155l9 -2q46 -9 97 -9t97 9l10 2q148 33 218 172v-183h114v945h-114v-181q-70 139 -221 172l-9 2q-45 8 -95 8t-94 -8l-11 -2q-157 -32 -245 -154q-89 -123 -89 -309zM194 473q0 171 85 265t240 94t240 -94t85 -264v-1 q0 -171 -85 -265t-240 -94t-240 94t-85 265zM444 1149l119 26l41 159h-79z" />
<glyph unicode="&#xe2;" d="M80 473q0 -185 88 -307q88 -123 245 -155l9 -2q46 -9 97 -9t97 9l10 2q148 33 218 172v-183h114v945h-114v-181q-70 139 -221 172l-9 2q-45 8 -95 8t-94 -8l-11 -2q-157 -32 -245 -154q-89 -123 -89 -309zM194 473q0 171 85 265t240 94t240 -94t85 -264v-1 q0 -171 -85 -265t-240 -94t-240 94t-85 265zM327 1205l75 -75l123 123l122 -123l75 75l-103 103l-94 63l-95 -63z" />
<glyph unicode="&#xe3;" d="M80 473q0 -185 88 -307q88 -123 245 -155l9 -2q46 -9 97 -9t97 9l10 2q148 33 218 172v-183h114v945h-114v-181q-70 139 -221 172l-9 2q-45 8 -95 8t-94 -8l-11 -2q-157 -32 -245 -154q-89 -123 -89 -309zM194 473q0 171 85 265t240 94t240 -94t85 -264v-1 q0 -171 -85 -265t-240 -94t-240 94t-85 265zM341 1156l13 -8q13 -8 27 -11q10 -2 21 -2q33 0 106 33l31 14q18 8 32 13q36 12 65 12q15 0 30 -3l31 -7v116l-13 8q-13 8 -27 11q-10 2 -21 2q-33 0 -106 -34l-31 -13q-18 -8 -32 -13q-36 -12 -65 -12q-15 0 -30 3l-31 7v-116z " />
<glyph unicode="&#xe4;" d="M80 473q0 -185 88 -307q88 -123 245 -155l9 -2q46 -9 97 -9t97 9l10 2q148 33 218 172v-183h114v945h-114v-181q-70 139 -221 172l-9 2q-45 8 -95 8t-94 -8l-11 -2q-157 -32 -245 -154q-89 -123 -89 -309zM194 473q0 171 85 265t240 94t240 -94t85 -264v-1 q0 -171 -85 -265t-240 -94t-240 94t-85 265zM260 1232q0 -34 24 -57q23 -24 57 -24t58 24q23 23 23 57t-23 58q-24 23 -58 23t-57 -23q-24 -24 -24 -58zM616 1232q0 -34 23 -57q24 -24 58 -24t57 24q24 23 24 57t-24 58q-23 23 -57 23t-58 -23q-23 -24 -23 -58z" />
<glyph unicode="&#xe5;" d="M80 473q0 -185 88 -307q88 -123 245 -155l9 -2q46 -9 97 -9t97 9l10 2q148 33 218 172v-183h114v945h-114v-181q-70 139 -221 172l-9 2q-45 8 -95 8t-94 -8l-11 -2q-157 -32 -245 -154q-89 -123 -89 -309zM194 473q0 171 85 265t240 94t240 -94t85 -264v-1 q0 -171 -85 -265t-240 -94t-240 94t-85 265zM400 1232q0 -49 35 -84t84 -35t84 35t35 84t-35 84t-84 35t-84 -35t-35 -84zM462 1232q0 24 17 40q16 17 40 17t40 -17q17 -16 17 -40t-17 -40q-16 -17 -40 -17t-40 17q-17 16 -17 40z" />
<glyph unicode="&#xe6;" horiz-adv-x="1802" d="M80 473q0 219 118 346t321 127q223 0 342 -153l40 -51l40 51q119 153 342 153q175 0 289 -98q115 -98 142 -272q7 -45 8 -94v-52h-767l12 -61q25 -123 109 -189t217 -66q194 0 287 120l104 -51q-58 -87 -161 -135q-102 -48 -230 -48q-145 0 -252 66l-78 48v-112h-119v114 l-78 -50q-104 -66 -247 -66q-203 0 -321 127t-118 346zM194 473q0 -171 85 -265t240 -94q154 0 240 94q85 93 85 264v2q0 144 -61 234q-84 124 -264 124q-155 0 -240 -94t-85 -265zM956 533h653l-15 63q-27 114 -107 175q-81 61 -204 61q-124 0 -204 -61q-81 -61 -108 -175z " />
<glyph unicode="&#xe7;" horiz-adv-x="967" d="M80 472q0 -202 101 -326q100 -125 278 -144l15 -2l3 -112l31 -6q25 -5 34 -17q9 -11 5 -31t-16 -27q-13 -8 -38 -3q-12 2 -20 6l-35 -71q18 -9 40 -13q16 -3 31 -3q36 0 63 16q42 26 53 80q10 54 -19 94q-19 25 -52 38l-1 49h6q223 16 328 188l-105 48 q-84 -123 -263 -123q-155 0 -240 94t-85 265t85 265t240 94q178 0 262 -122l105 49q-57 90 -151 138q-96 49 -216 49q-203 0 -321 -127t-118 -346z" />
<glyph unicode="&#xe8;" d="M80 463q3 -214 123 -339q121 -124 327 -124q127 0 230 48q102 48 160 135l-104 51q-93 -120 -286 -120q-134 0 -218 66t-108 189q-5 25 -8 61h762v52q-1 48 -8 94q-27 174 -142 272q-114 98 -289 98q-203 0 -321 -127t-118 -346v-10zM197 533q3 35 10 63q27 114 108 175 q80 61 204 61t204 -61t108 -175l1 -8q2 -5 3 -10l2 -14q3 -17 4 -31h-644zM434 1332l41 -159l119 -26l-81 185h-79z" />
<glyph unicode="&#xe9;" d="M80 463q3 -214 123 -339q121 -124 327 -124q127 0 230 48q102 48 160 135l-104 51q-93 -120 -286 -120q-134 0 -218 66t-108 189q-5 25 -8 61h762v52q-1 48 -8 94q-27 174 -142 272q-114 98 -289 98q-203 0 -321 -127t-118 -346v-10zM197 533q3 35 10 63q27 114 108 175 q80 61 204 61t204 -61t108 -175l1 -8q2 -5 3 -10l2 -14q3 -17 4 -31h-644zM444 1147l119 26l42 159h-79z" />
<glyph unicode="&#xea;" d="M80 463q3 -214 123 -339q121 -124 327 -124q127 0 230 48q102 48 160 135l-104 51q-93 -120 -286 -120q-134 0 -218 66t-108 189q-5 25 -8 61h762v52q-1 48 -8 94q-27 174 -142 272q-114 98 -289 98q-203 0 -321 -127t-118 -346v-10zM197 533q3 35 10 63q27 114 108 175 q80 61 204 61t204 -61t108 -175l1 -8q2 -5 3 -10l2 -14q3 -17 4 -31h-644zM327 1205l75 -75l123 123l122 -123l75 75l-103 103l-94 63l-95 -63z" />
<glyph unicode="&#xeb;" d="M80 463q3 -214 123 -339q121 -124 327 -124q127 0 230 48q102 48 160 135l-104 51q-93 -120 -286 -120q-134 0 -218 66t-108 189q-5 25 -8 61h762v52q-1 48 -8 94q-27 174 -142 272q-114 98 -289 98q-203 0 -321 -127t-118 -346v-10zM197 533q3 35 10 63q27 114 108 175 q80 61 204 61t204 -61t108 -175l1 -8q2 -5 3 -10l2 -14q3 -17 4 -31h-644zM260 1230q0 -33 23 -57q24 -24 58 -24t58 24q23 24 23 57q0 34 -23 58q-24 24 -58 24t-58 -24q-23 -24 -23 -58zM615 1230q0 -33 24 -57t58 -24t57 24q24 24 24 57q0 34 -24 58q-23 24 -57 24 t-58 -24t-24 -58z" />
<glyph unicode="&#xec;" horiz-adv-x="320" d="M80 1332l42 -159l118 -26l-81 185h-79zM119 0h114v946h-114v-946z" />
<glyph unicode="&#xed;" horiz-adv-x="320" d="M80 1147l119 26l41 159h-79zM88 0h114v946h-114v-946z" />
<glyph unicode="&#xee;" horiz-adv-x="554" d="M80 1205l74 -75l123 123l123 -123l74 75l-103 103l-94 63l-94 -63zM214 0h115v946h-115v-946z" />
<glyph unicode="&#xef;" horiz-adv-x="679" d="M80 1230q0 -34 24 -57q24 -24 57 -24q34 0 58 24q24 23 24 57t-24 58q-24 23 -58 23q-33 0 -57 -23q-24 -24 -24 -58zM282 0h114v946h-114v-946zM436 1230q0 -34 24 -57q24 -24 57 -24q34 0 58 24q24 23 24 57t-24 58q-24 23 -58 23q-33 0 -57 -23q-24 -24 -24 -58z" />
<glyph unicode="&#xf0;" horiz-adv-x="932" d="M80 416q0 -193 104 -304q103 -112 282 -112t283 112q103 111 103 304q0 371 -152 595q-151 224 -415 245v-115q47 -4 90 -17l12 -4l14 -4q18 -6 36 -15q-32 -30 -106 -96l78 -35l90 91q92 -62 153 -175q31 -56 43 -100l-111 30q-56 15 -118 15q-178 0 -282 -112 q-104 -111 -104 -303zM194 416q0 145 70 223q71 78 202 78q132 0 202 -78t70 -223q0 -146 -70 -224t-202 -78q-131 0 -202 78q-70 78 -70 224z" />
<glyph unicode="&#xf1;" horiz-adv-x="953" d="M80 0h114v526q11 148 83 227q73 79 198 79q137 0 211 -93q73 -93 73 -266v-473h114v473q0 154 -57 267t-161 166q-79 40 -180 40q-100 0 -178 -40q-62 -34 -103 -97v136h-114v-945zM299 1158l12 -8q13 -8 27 -11q10 -3 21 -3q34 0 107 34l31 14q17 8 31 12q36 13 66 13 q15 0 29 -3l31 -7v116l-12 7q-14 8 -28 12q-9 2 -20 2q-34 0 -107 -34l-31 -14q-17 -7 -32 -12q-35 -12 -65 -12q-15 0 -29 3l-31 6v-115z" />
<glyph unicode="&#xf2;" d="M80 473q0 219 118 346t321 127t321 -127t118 -346t-118 -346t-321 -127t-321 127t-118 346zM194 473q0 -171 85 -265t240 -94t240 94t85 265t-85 265t-240 94t-240 -94t-85 -265zM434 1334l41 -159l119 -26l-81 185h-79z" />
<glyph unicode="&#xf3;" d="M80 473q0 219 118 346t321 127t321 -127t118 -346t-118 -346t-321 -127t-321 127t-118 346zM194 473q0 -171 85 -265t240 -94t240 94t85 265t-85 265t-240 94t-240 -94t-85 -265zM444 1149l119 26l41 159h-79z" />
<glyph unicode="&#xf4;" d="M80 473q0 219 118 346t321 127t321 -127t118 -346t-118 -346t-321 -127t-321 127t-118 346zM194 473q0 -171 85 -265t240 -94t240 94t85 265t-85 265t-240 94t-240 -94t-85 -265zM327 1207l75 -75l123 123l122 -123l75 75l-103 103l-94 63l-95 -63z" />
<glyph unicode="&#xf5;" d="M80 473q0 219 118 346t321 127t321 -127t118 -346t-118 -346t-321 -127t-321 127t-118 346zM194 473q0 -171 85 -265t240 -94t240 94t85 265t-85 265t-240 94t-240 -94t-85 -265zM341 1158l13 -8q13 -8 27 -11q10 -2 21 -2q33 0 106 33l31 14q18 8 32 13q36 12 65 12 q15 0 30 -3l31 -7v116l-13 7q-13 9 -27 12q-10 2 -21 2q-33 0 -106 -34l-31 -14q-18 -7 -32 -12q-36 -12 -65 -12q-16 0 -30 3l-31 7v-116z" />
<glyph unicode="&#xf6;" d="M80 473q0 219 118 346t321 127t321 -127t118 -346t-118 -346t-321 -127t-321 127t-118 346zM194 473q0 -171 85 -265t240 -94t240 94t85 265t-85 265t-240 94t-240 -94t-85 -265zM260 1232q0 -34 24 -57q23 -24 57 -24t58 24q23 23 23 57t-23 58q-24 24 -58 24t-57 -24 q-24 -24 -24 -58zM616 1232q0 -34 23 -57q24 -24 58 -24t57 24q24 23 24 57t-24 58q-23 24 -57 24t-58 -24q-23 -24 -23 -58z" />
<glyph unicode="&#xf7;" horiz-adv-x="630" d="M80 660v114h470v-114h-470zM247 537q0 28 20 48t48 20t48 -20t20 -48t-20 -48t-48 -20t-48 20t-20 48zM247 898q0 28 20 48t48 20t48 -20t20 -48t-20 -48t-48 -20t-48 20t-20 48z" />
<glyph unicode="&#xf8;" d="M80 473q0 -183 84 -304q83 -119 233 -155l-32 -261h133l30 247q199 3 315 130q115 127 115 343q0 183 -84 304q-83 120 -233 155l32 261h-133l-30 -247q-199 -3 -315 -130q-115 -127 -115 -343zM194 473q0 164 79 258q79 93 223 100l-85 -703q-105 30 -161 118 q-56 89 -56 227zM542 115l85 703q105 -30 161 -118q56 -89 56 -227q0 -164 -79 -257q-79 -94 -223 -101z" />
<glyph unicode="&#xf9;" horiz-adv-x="955" d="M80 473q0 -154 57 -267q57 -114 160 -166q80 -40 180 -40t179 39q63 35 104 101v-139h115v945h-115v-524h-1q-11 -150 -83 -229t-199 -79q-137 0 -210 93q-73 92 -73 266v473h-114v-473zM392 1334l42 -159l118 -26l-81 185h-79z" />
<glyph unicode="&#xfa;" horiz-adv-x="955" d="M80 473q0 -154 57 -267q57 -114 160 -166q80 -40 180 -40t179 39q63 35 104 101v-139h115v945h-115v-524h-1q-11 -150 -83 -229t-199 -79q-137 0 -210 93q-73 92 -73 266v473h-114v-473zM402 1149l119 26l42 159h-79z" />
<glyph unicode="&#xfb;" horiz-adv-x="955" d="M80 473q0 -154 57 -267q57 -114 160 -166q80 -40 180 -40t179 39q63 35 104 101v-139h115v945h-115v-524h-1q-11 -150 -83 -229t-199 -79q-137 0 -210 93q-73 92 -73 266v473h-114v-473zM286 1207l74 -75l123 123l123 -123l74 75l-103 103l-94 63l-94 -63z" />
<glyph unicode="&#xfc;" horiz-adv-x="955" d="M80 473q0 -154 57 -267q57 -114 160 -166q80 -40 180 -40t179 39q63 35 104 101v-139h115v945h-115v-524h-1q-11 -150 -83 -229t-199 -79q-137 0 -210 93q-73 92 -73 266v473h-114v-473zM218 1232q0 -34 24 -58q24 -23 57 -23q34 0 58 23q24 24 24 58t-24 57 q-24 24 -58 24q-33 0 -57 -24q-24 -23 -24 -57zM574 1232q0 -34 24 -58q24 -23 57 -23q34 0 58 23q24 24 24 58t-24 57q-24 24 -58 24q-33 0 -57 -24q-24 -23 -24 -57z" />
<glyph unicode="&#xfd;" horiz-adv-x="953" d="M80 473q0 -154 57 -268q57 -113 160 -165q80 -40 180 -40t179 39q62 34 103 98v-240q0 -152 -83 -235t-233 -83q-172 0 -254 106l-104 -51q113 -169 358 -169q199 0 314 116q116 116 116 316v1048h-114v-525q-11 -149 -83 -227q-73 -79 -199 -79q-137 0 -210 92 q-73 93 -73 267v472h-114v-472zM394 1146l119 26l42 160h-79z" />
<glyph unicode="&#xfe;" d="M80 -490h114v673q70 -140 221 -173l8 -1q47 -9 96 -9q50 0 94 8l11 3q157 31 245 154q89 123 89 308t-88 308q-88 122 -245 155l-9 2q-46 8 -97 8t-97 -8l-10 -2q-148 -34 -218 -172v671h-114v-1925zM194 473v1q0 171 85 265q85 93 240 93t240 -94t85 -265t-85 -265 t-240 -94t-240 94t-85 265z" />
<glyph unicode="&#xff;" horiz-adv-x="953" d="M80 473q0 -154 57 -268q57 -113 160 -165q80 -40 180 -40t179 39q62 34 103 98v-240q0 -152 -83 -235t-233 -83q-172 0 -254 106l-104 -51q113 -169 358 -169q199 0 314 116q116 116 116 316v1048h-114v-525q-11 -149 -83 -227q-73 -79 -199 -79q-137 0 -210 92 q-73 93 -73 267v472h-114v-472zM215 1232q0 -34 24 -58t58 -24q33 0 57 24t24 58q0 33 -24 57t-57 24q-34 0 -58 -24t-24 -57zM571 1232q0 -34 24 -58t58 -24q33 0 57 24t24 58q0 33 -24 57t-57 24q-34 0 -58 -24t-24 -57z" />
<glyph unicode="&#x2c6;" horiz-adv-x="742" d="M80 1079l232 355h118l232 -355h-58l-233 216l-233 -216h-58z" />
<glyph unicode="&#x2dc;" horiz-adv-x="630" d="M80 1291v114q78 -24 235 0l59 8q32 5 58 5q66 3 118 -13v-114q-52 16 -118 13q-26 -1 -58 -5l-59 -8q-157 -24 -235 0z" />
<glyph unicode="&#x2000;" horiz-adv-x="932" />
<glyph unicode="&#x2001;" horiz-adv-x="1864" />
<glyph unicode="&#x2002;" horiz-adv-x="932" />
<glyph unicode="&#x2003;" horiz-adv-x="1864" />
<glyph unicode="&#x2004;" horiz-adv-x="621" />
<glyph unicode="&#x2005;" horiz-adv-x="466" />
<glyph unicode="&#x2006;" horiz-adv-x="310" />
<glyph unicode="&#x2007;" horiz-adv-x="310" />
<glyph unicode="&#x2008;" horiz-adv-x="233" />
<glyph unicode="&#x2009;" horiz-adv-x="372" />
<glyph unicode="&#x200a;" horiz-adv-x="103" />
<glyph unicode="&#x2010;" horiz-adv-x="630" d="M80 660h470v114h-470v-114z" />
<glyph unicode="&#x2011;" horiz-adv-x="630" d="M80 660h470v114h-470v-114z" />
<glyph unicode="&#x2012;" horiz-adv-x="630" d="M80 660h470v114h-470v-114z" />
<glyph unicode="&#x2013;" horiz-adv-x="1156" d="M80 419v120h996v-120h-996z" />
<glyph unicode="&#x2014;" horiz-adv-x="2208" d="M80 419v120h2048v-120h-2048z" />
<glyph unicode="&#x2018;" horiz-adv-x="241" d="M80 1238l81 22v175h-81v-197z" />
<glyph unicode="&#x2019;" horiz-adv-x="241" d="M80 1260l81 -22v197h-81v-175z" />
<glyph unicode="&#x201a;" horiz-adv-x="241" d="M80 67v-197l81 23v174h-81z" />
<glyph unicode="&#x201c;" horiz-adv-x="363" d="M80 1238l81 22v175h-81v-197zM202 1301l81 22v112h-81v-134z" />
<glyph unicode="&#x201d;" horiz-adv-x="363" d="M80 1323l81 -22v134h-81v-112zM202 1260l81 -22v197h-81v-175z" />
<glyph unicode="&#x201e;" horiz-adv-x="363" d="M80 45v-112l81 -22v134h-81zM202 45v-175l81 -22v197h-81z" />
<glyph unicode="&#x2022;" horiz-adv-x="752" d="M80 718q0 123 87 209t210 86q122 0 208.5 -86.5t86.5 -208.5t-87.5 -209.5t-209.5 -87.5q-123 0 -209 87t-86 210z" />
<glyph unicode="&#x2026;" horiz-adv-x="852" d="M80 68q0 28 20 48t48 20t48 -20t20 -48t-20 -48t-48 -20t-48 20t-20 48zM357 68q0 28 20 48t48 20t48 -20t20 -48t-20 -48t-48 -20t-48 20t-20 48zM636 68q0 28 19 48q20 20 49 20q28 0 48 -20t20 -48t-20 -48t-48 -20q-29 0 -49 20q-19 20 -19 48z" />
<glyph unicode="&#x202f;" horiz-adv-x="372" />
<glyph unicode="&#x2039;" horiz-adv-x="497" d="M80 717l256 -255l81 80l-176 175l176 176l-81 80z" />
<glyph unicode="&#x203a;" horiz-adv-x="497" d="M80 542l81 -80l256 255l-256 256l-81 -80l175 -176z" />
<glyph unicode="&#x205f;" horiz-adv-x="466" />
<glyph unicode="&#x20ac;" horiz-adv-x="1377" d="M80 511l15 115h98l-2 52v40v40l2 53h-74l15 114h74l9 39q53 225 202 349q148 123 366 123q174 0 305 -78q130 -79 205 -227l-106 -43q-123 234 -404 234q-163 0 -277 -85t-165 -245l-21 -67h279l-15 -114h-278l-2 -49q-1 -24 -1 -44t1 -43l2 -49h253l-15 -115h-224 l21 -66q51 -160 165 -245q114 -86 277 -86q284 0 405 238l107 -43q-74 -148 -207 -228q-133 -81 -305 -81q-218 0 -366 124q-149 123 -202 348l-9 39h-128z" />
<glyph unicode="&#x2122;" horiz-adv-x="396" d="M80 1621h40v-121h20v121h41v20h-101v-20zM199 1500h20v83l28 -80h21l28 80v-83h20v141h-21l-38 -108l-37 108h-21v-141z" />
<glyph unicode="&#x25fc;" horiz-adv-x="945" d="M0 0v945h945v-945h-945z" />
</font>
</defs>
</svg>
