<?xml version="1.0" standalone="no"?>
<!DOCTYPE svg PUBLIC "-//W3C//DTD SVG 1.1//EN" "http://www.w3.org/Graphics/SVG/1.1/DTD/svg11.dtd" >
<svg xmlns="http://www.w3.org/2000/svg" xmlns:xlink="http://www.w3.org/1999/xlink" version="1.1">
<metadata></metadata>
<defs>
<font id="kayak_sansregular" horiz-adv-x="1058" >
<font-face units-per-em="2048" ascent="1638" descent="-410" />
<missing-glyph horiz-adv-x="508" />
<glyph unicode="&#xd;" horiz-adv-x="508" />
<glyph horiz-adv-x="0" />
<glyph horiz-adv-x="0" />
<glyph unicode=" "  horiz-adv-x="508" />
<glyph unicode="&#x09;" horiz-adv-x="508" />
<glyph unicode="&#xa0;" horiz-adv-x="508" />
<glyph unicode="!" horiz-adv-x="341" d="M80 90q0 38 27 64q26 27 63 27q38 0 64 -27q27 -26 27 -64q0 -37 -27 -63q-26 -27 -64 -27q-37 0 -63 27q-27 26 -27 63zM91 450h159v987h-159v-987z" />
<glyph unicode="&#x22;" horiz-adv-x="465" d="M80 1200l128 36v197h-128v-233zM257 1246l128 36v151h-128v-187z" />
<glyph unicode="#" horiz-adv-x="1217" d="M80 255h192l-24 -255h159l24 255h294l-24 -255h160l23 255h192l16 160h-192l30 319h192l15 159h-192l24 255h-160l-24 -255h-293l24 255h-160l-24 -255h-192l-15 -159h192l-30 -319h-192zM446 415l31 319h293l-30 -319h-294z" />
<glyph unicode="$" horiz-adv-x="1004" d="M80 424l158 13h1q10 -86 89 -128l32 -17l44 365l-23 4q-133 27 -209 113q-75 85 -75 209q0 144 98 233q99 89 268 99l21 1l14 122h179l-17 -142l19 -7q199 -67 223 -259l-159 -13q-12 65 -70 101l-32 20l-41 -335l23 -5q141 -27 221 -116q80 -90 80 -220 q0 -151 -104 -244t-283 -103l-20 -1l-14 -114h-179l17 134l-20 6q-106 34 -168 108q-63 74 -73 176zM256 983q0 -128 140 -162l27 -7l41 342l-32 -4q-98 -14 -142 -67q-34 -41 -34 -102zM536 274l31 4q111 13 160 72q37 45 37 112q0 141 -156 177l-27 6z" />
<glyph unicode="%" horiz-adv-x="1416" d="M80 1169q0 120 70 194t183 74q114 0 184 -74t70 -194q0 -121 -70 -195t-184 -74q-113 0 -183 74t-70 195zM240 1169q0 -65 31 -91q22 -18 62 -18t62 18q32 26 32 91t-32 91q-22 18 -62 18t-62 -18q-31 -26 -31 -91zM366 -140l509 1747h177l-509 -1747h-177zM830 269 q0 120 70 194q69 75 183 75t183 -75q70 -74 70 -194q0 -121 -70 -195q-69 -74 -183 -74t-183 74q-70 74 -70 195zM989 269q0 -65 32 -91q22 -18 62 -18t62 18q32 26 32 91t-32 91q-22 18 -62 18t-62 -18q-32 -26 -32 -91z" />
<glyph unicode="&#x26;" horiz-adv-x="1082" d="M80 453q0 254 166 375l20 15l-15 20q-68 91 -68 229q0 157 89 252q88 94 236 94t236 -94q88 -95 88 -252q0 -158 -88 -252t-236 -94h-3l-27 -1q-116 -7 -177 -83q-61 -75 -61 -209q0 -142 67 -218q68 -75 195 -75q51 0 92 12l37 11l-100 115l120 105l90 -103l11 46 q10 38 12 82h160q-5 -139 -64 -239l-9 -16l151 -173h-212l-54 61l-17 -9q-94 -52 -217 -52q-192 0 -307 123t-115 330zM343 1092q0 -185 159 -187h6q92 0 133 62q31 46 31 125q0 78 -31 125q-41 61 -133 61t-134 -61q-31 -47 -31 -125z" />
<glyph unicode="'" horiz-adv-x="288" d="M80 1200l128 36v197h-128v-233z" />
<glyph unicode="(" horiz-adv-x="555" d="M322 -100q-242 812 0 1623l153 -47q-228 -764 0 -1529z" />
<glyph unicode=")" horiz-adv-x="555" d="M80 -53q228 765 0 1529l153 47q242 -811 0 -1623z" />
<glyph unicode="*" horiz-adv-x="449" d="M80 1341l51 -51l94 93l93 -93l51 51l-93 94l93 93l-51 51l-93 -93l-94 93l-51 -51l93 -93z" />
<glyph unicode="+" horiz-adv-x="757" d="M80 641h218v-218h160v218h219v160h-219v218h-160v-218h-218v-160z" />
<glyph unicode="," horiz-adv-x="288" d="M80 88v-248l128 36v212h-128z" />
<glyph unicode="-" horiz-adv-x="664" d="M80 641h504v160h-504v-160z" />
<glyph unicode="." horiz-adv-x="341" d="M80 90q0 38 27 64q26 27 63 27q38 0 64 -27q27 -26 27 -64q0 -37 -27 -63q-26 -27 -64 -27q-37 0 -63 27q-27 26 -27 63z" />
<glyph unicode="/" horiz-adv-x="550" d="M80 -170h179l211 1747h-178z" />
<glyph unicode="0" horiz-adv-x="1166" d="M80 721q0 368 160 560q135 161 343 161q207 0 342 -161q161 -192 161 -560q0 -369 -161 -560q-135 -161 -342 -161q-208 0 -343 161q-160 191 -160 560zM240 721q0 -83 10 -159q14 -105 45 -185q86 -217 288 -217t288 217q31 80 45 185q10 76 10 159q0 82 -10 159 q-14 105 -45 185q-86 217 -288 217t-288 -217q-31 -80 -45 -185q-10 -77 -10 -159z" />
<glyph unicode="1" horiz-adv-x="585" d="M80 1193l111 -115l154 149v-1227h160v1438h-171z" />
<glyph unicode="2" d="M80 0v175l683 624v1q52 55 55 159v5q-2 152 -77 233q-74 81 -212 81q-134 0 -208 -76t-81 -219l-159 13q11 205 131 323q120 119 317 119q203 0 323 -125q121 -125 126 -340v-11v-6q-5 -170 -102 -270l-4 -3l-572 -523h674v-160h-894z" />
<glyph unicode="3" horiz-adv-x="1142" d="M80 382l159 13q9 -114 94 -175q86 -60 237 -60q161 0 247 68t86 195t-86 195t-247 68h-120v160h120q134 0 205 56t71 160t-71 160t-205 56q-123 0 -193 -48t-80 -138l-160 13q15 155 131 244q115 89 302 89q199 0 317 -103q119 -102 119 -273q0 -166 -111 -267l-23 -21 l25 -18q165 -115 165 -333q0 -193 -133 -308q-134 -115 -359 -115q-214 0 -345 102q-131 103 -145 280z" />
<glyph unicode="4" horiz-adv-x="1075" d="M80 384h493v-384h159v384h263v160h-263v278h-159v-278h-311l411 894h-176l-417 -908v-146z" />
<glyph unicode="5" horiz-adv-x="1085" d="M80 427h160q7 -129 84 -198q78 -69 218 -69q147 0 225 75q79 76 79 217t-79 217q-78 75 -225 75h-440l88 694h791l-20 -160h-630l-48 -374h270h9q205 -6 324 -128q119 -121 119 -324q0 -206 -126 -329t-337 -123q-204 0 -329 116t-133 311z" />
<glyph unicode="6" horiz-adv-x="1040" d="M80 465v58q7 419 233 665q227 246 613 254v-160q-423 -10 -593 -342l-27 -53l57 19q73 23 157 23q200 0 320 -126q120 -127 120 -338q0 -212 -120 -339q-120 -126 -320 -126q-201 0 -320 126q-120 127 -120 339zM240 465q0 -148 72 -227q72 -78 208 -78q135 0 208 78 q72 79 72 227q0 147 -72 226q-73 79 -208 79q-136 0 -208 -79t-72 -226z" />
<glyph unicode="7" horiz-adv-x="1039" d="M80 0h182l697 1269v169h-868v-160h691z" />
<glyph unicode="8" horiz-adv-x="1144" d="M80 423q0 218 165 333l26 18l-23 21q-111 101 -111 267q0 171 118 273q119 103 317 103t317 -103q118 -102 118 -273q0 -166 -111 -267l-23 -21l26 -18q165 -115 165 -333q0 -193 -134 -308t-358 -115t-358 115t-134 308zM240 423q0 -127 86 -195q85 -68 246 -68t247 68 q85 68 85 195t-85 195q-86 68 -247 68t-246 -68q-86 -68 -86 -195zM297 1062q0 -104 71 -160t204 -56t204 56t71 160t-71 160t-204 56t-204 -56t-71 -160z" />
<glyph unicode="9" horiz-adv-x="1040" d="M80 977q0 212 120 338q119 127 320 127q200 0 320 -127q120 -126 120 -338l-1 -32l-1 -26h1q-6 -419 -233 -665q-226 -246 -612 -254v160q422 10 592 341l28 54l-57 -19q-73 -24 -157 -24q-201 0 -320 127q-120 126 -120 338zM240 977q0 -148 72 -226q72 -79 208 -79 q135 0 208 79q72 78 72 226q0 147 -72 226q-73 79 -208 79q-136 0 -208 -79t-72 -226z" />
<glyph unicode=":" horiz-adv-x="341" d="M80 330q0 38 27 64q26 27 63 27q38 0 64 -27q27 -26 27 -64q0 -37 -27 -63q-26 -27 -64 -27q-37 0 -63 27q-27 26 -27 63zM80 789q0 37 27 64q26 27 63 27q38 0 64 -27q27 -27 27 -64t-27 -64q-26 -26 -64 -26q-37 0 -63 26q-27 27 -27 64z" />
<glyph unicode=";" horiz-adv-x="341" d="M80 786q0 38 27 64q26 27 63 27q38 0 64 -27q27 -26 27 -64q0 -37 -27 -64q-26 -26 -64 -26q-37 0 -63 26q-27 27 -27 64zM106 170l1 248l128 -1l-1 -212z" />
<glyph unicode="&#x3c;" horiz-adv-x="555" d="M80 721l283 -282l112 113l-169 169l169 169l-112 113z" />
<glyph unicode="=" horiz-adv-x="664" d="M80 492h504v160h-504v-160zM80 790h504v159h-504v-159z" />
<glyph unicode="&#x3e;" horiz-adv-x="555" d="M80 552l113 -113l282 282l-282 282l-113 -113l170 -169z" />
<glyph unicode="?" horiz-adv-x="1054" d="M80 1036l159 -16q0 124 75 190q74 67 213 67t213 -67q74 -66 74 -191q0 -124 -74 -191q-74 -66 -213 -66h-80v-313h160v158l20 3q163 27 255 136q92 108 92 273q0 190 -122 304q-122 113 -325 113q-201 0 -321 -107q-120 -108 -126 -293zM436 90q0 38 27 64q26 27 64 27 q37 0 64 -27q26 -26 26 -64q0 -37 -26 -63q-27 -27 -64 -27q-38 0 -64 27q-27 26 -27 63z" />
<glyph unicode="@" horiz-adv-x="1493" d="M80 719q0 -325 167 -516q167 -190 463 -202l6 -1l7 1l6 -1h18q308 0 487 193t179 526q0 332 -179 526q-179 193 -487 193q-309 0 -488 -193q-179 -194 -179 -526zM240 719q0 270 131 415q130 144 376 144q245 0 375 -144q131 -145 131 -415q0 -273 -136 -418l-4 -5 l-13 -14q-11 -12 -22 -22q-14 -14 -25 -23l22 87q23 85 31 196q3 43 5 91q1 35 1 80v28q0 178 -100 284q-99 106 -265 106q-167 0 -266 -106q-100 -106 -100 -284t100 -284q99 -106 266 -106q68 0 129 20l47 15l-16 -46q-30 -90 -85 -128q-38 -27 -96 -30h-2 q-234 7 -359 151t-125 408zM541 719q0 129 67 186q52 44 139 44q86 0 138 -44q67 -57 67 -186t-67 -187q-52 -43 -138 -43q-87 0 -139 43q-67 58 -67 187z" />
<glyph unicode="A" horiz-adv-x="1336" d="M80 0h169l136 395l6 16h555l141 -411h169l-495 1437h-186zM445 571l223 646l223 -646h-446z" />
<glyph unicode="B" horiz-adv-x="1136" d="M80 0h517q209 0 334 113q125 114 125 304q0 233 -181 345q132 105 132 294q0 174 -114 278t-305 104h-508v-1438zM240 160v514h357q145 0 222 -67q77 -66 77 -190q0 -125 -77 -191t-222 -66h-357zM240 834v444h348q145 0 210 -73q49 -56 49 -149q0 -89 -45 -145 q-60 -71 -191 -77v-1l-14 1h-357z" />
<glyph unicode="C" horiz-adv-x="1287" d="M80 719q0 -333 161 -526t438 -193q181 0 319 88q137 88 209 249l-148 59q-108 -236 -380 -236q-209 0 -324 146t-115 413q0 266 115 413q115 146 324 146q270 0 378 -233l148 60q-73 161 -208 247q-136 86 -318 86q-277 0 -438 -193q-161 -194 -161 -526z" />
<glyph unicode="D" horiz-adv-x="1236" d="M80 0h477q277 0 438 193t161 526q0 332 -161 526q-161 193 -438 193h-477v-1438zM240 160v1118h317q210 0 325 -146q115 -147 115 -413q0 -267 -115 -413t-325 -146h-317z" />
<glyph unicode="E" horiz-adv-x="1065" d="M80 0h905v160h-745v479h505v160h-505v479h745v160h-905v-1438z" />
<glyph unicode="F" horiz-adv-x="1065" d="M80 0h160v639h505v160h-505v479h745v160h-905v-1438z" />
<glyph unicode="G" horiz-adv-x="1328" d="M80 694q6 -322 162 -508q157 -186 422 -186q267 0 424 190v-190h160v799h-470v-160h307q0 -10 -2 -27q-22 -216 -131 -334q-110 -118 -288 -118q-198 0 -308 139q-111 140 -116 395v50q5 255 121 394q115 140 321 140q266 0 376 -226l147 63q-74 156 -209 240 q-135 83 -314 83q-273 0 -435 -187q-161 -186 -167 -507v-50z" />
<glyph unicode="H" horiz-adv-x="1138" d="M80 0h160v639h659v-639h159v1437h-159v-638h-659v638h-160v-1437z" />
<glyph unicode="I" horiz-adv-x="320" d="M80 0h160v1437h-160v-1437z" />
<glyph unicode="J" horiz-adv-x="989" d="M80 217q118 -217 380 -217q208 0 328 141q121 141 121 384v914h-160v-914q0 -174 -75 -270q-76 -95 -214 -95q-162 0 -236 126z" />
<glyph unicode="K" horiz-adv-x="1138" d="M80 0h160v517l139 157l482 -673h197l-570 795l569 641h-214l-603 -680v680h-160v-1437z" />
<glyph unicode="L" horiz-adv-x="968" d="M80 0h808v160h-648v1278h-160v-1438z" />
<glyph unicode="M" horiz-adv-x="1338" d="M80 0h160v992l336 -959h2h184l337 959v-992h159v1436h-173l-416 -1186l-23 67l-393 1119h-173v-1436z" />
<glyph unicode="N" horiz-adv-x="1101" d="M80 0h160v1137l598 -1137h183v1435h-159v-1138l-599 1139h-183v-1436z" />
<glyph unicode="O" horiz-adv-x="1329" d="M80 719q0 -333 157 -526t427 -193q271 0 428 193t157 526t-157 526t-428 193q-270 0 -427 -193t-157 -526zM240 719q0 266 111 413q111 146 313 146q203 0 314 -146q111 -147 111 -413q0 -267 -111 -413t-314 -146q-202 0 -313 146t-111 413z" />
<glyph unicode="P" horiz-adv-x="1066" d="M80 0h160v630h302q202 0 323 110t121 294t-121 294t-323 110l-462 -1v-1437zM240 790v488h302q137 0 211 -63q73 -63 73 -181t-73 -181q-74 -63 -211 -63h-302z" />
<glyph unicode="Q" horiz-adv-x="1329" d="M80 719q0 -333 157 -526t427 -193h1l34 -138h158l-39 157q203 52 316 235q115 184 115 465q0 333 -157 526t-428 193q-270 0 -427 -193t-157 -526zM240 719q0 267 111 413t313 146q203 0 314 -146t111 -413q0 -225 -80 -366q-80 -140 -229 -179l-30 124h-159l34 -137 q-184 15 -285 160q-100 145 -100 398z" />
<glyph unicode="R" horiz-adv-x="1077" d="M80 0h160v630h278l301 -630h178l-310 648q140 35 219 136q80 102 80 250q0 184 -121 294t-323 110l-462 -1v-1437zM240 790v488h302q137 0 211 -63q73 -63 73 -181t-73 -181q-74 -63 -211 -63h-302z" />
<glyph unicode="S" horiz-adv-x="1160" d="M80 369q14 -174 146 -271q131 -98 353 -98q232 0 366 110q135 109 135 298t-135 299q-134 109 -366 109q-152 0 -235 61q-83 60 -83 170t83 171q83 60 235 60q138 0 220 -50q82 -51 96 -143l159 12q-18 159 -145 250t-330 91q-218 0 -348 -107q-130 -106 -130 -284 t130 -284t348 -106q163 0 252 -65t89 -184q0 -118 -89 -183t-252 -65q-153 0 -242 58q-88 58 -98 164z" />
<glyph unicode="T" horiz-adv-x="1170" d="M80 1278h425v-1278h160v1278h425v160h-1010v-160z" />
<glyph unicode="U" horiz-adv-x="1225" d="M80 591q0 -273 143 -432t390 -159q246 0 389 159t143 432v847h-159v-847q0 -205 -98 -318t-275 -113q-178 0 -276 113q-97 113 -97 318v847h-160v-847z" />
<glyph unicode="V" horiz-adv-x="1356" d="M80 1440l503 -1440h185l508 1440h-170l-430 -1221l-427 1221h-169z" />
<glyph unicode="W" horiz-adv-x="1913" d="M80 1440l381 -1440h178l293 1100l24 89l315 -1189h178l384 1440h-165l-308 -1154l-305 1154h-197l-308 -1154l-305 1154h-165z" />
<glyph unicode="X" horiz-adv-x="1395" d="M80 0h195l423 603l422 -603h195l-520 742l489 698h-195l-391 -559l-392 559h-195l489 -698z" />
<glyph unicode="Y" horiz-adv-x="1281" d="M80 1440l482 -724h-1v-716h159v715l481 725h-192l-368 -555l-369 555h-192z" />
<glyph unicode="Z" horiz-adv-x="1224" d="M80 0h1064v160h-871l819 1110v168h-1007v-160h814l-819 -1111v-167z" />
<glyph unicode="[" horiz-adv-x="507" d="M80 -140h347v160h-187v1402h187v160h-347v-1722z" />
<glyph unicode="\" horiz-adv-x="550" d="M80 1577l212 -1747h178l-211 1747h-179z" />
<glyph unicode="]" horiz-adv-x="507" d="M80 20v-160h347v1722h-347v-160h187v-1402h-187z" />
<glyph unicode="^" horiz-adv-x="724" d="M80 1161l113 -113l169 169l170 -169l112 113l-282 282z" />
<glyph unicode="_" horiz-adv-x="1071" d="M80 -10v-160h911v160h-911z" />
<glyph unicode="`" horiz-adv-x="334" d="M80 1401l59 -241l115 65l-50 206z" />
<glyph unicode="a" d="M80 482q0 -188 90 -313t250 -158l10 -2q47 -9 99 -9q51 0 98 9l11 2q111 25 180 107v-118h160v963h-160v-117q-70 83 -183 107l-9 2q-47 9 -97 9t-96 -8l-10 -3q-161 -32 -252 -157t-91 -314zM240 482q0 156 74 239q75 83 215 83t214 -83q75 -83 75 -238v-2 q0 -155 -75 -238q-74 -83 -214 -83t-215 83q-74 83 -74 239z" />
<glyph unicode="b" d="M80 0h160v118q69 -82 181 -107l10 -2q47 -9 98 -9t99 9q6 1 10 2q160 33 250 158t90 313q0 189 -91 314t-252 157l-9 2q-47 9 -97 9t-96 -8l-10 -2q-114 -25 -183 -108v592h-160v-1438zM240 481v2q0 155 75 238q74 83 214 83t215 -83q74 -83 74 -239t-74 -239 q-75 -83 -215 -83t-214 83q-75 83 -75 238z" />
<glyph unicode="c" horiz-adv-x="1000" d="M80 482q0 -220 122 -351t327 -131q132 0 234 57t157 162l-146 67q-71 -126 -245 -126q-140 0 -215 83q-74 83 -74 239t74 239q75 83 215 83q173 0 244 -124l145 67q-55 104 -156 160q-102 57 -233 57q-205 0 -327 -131q-122 -132 -122 -351z" />
<glyph unicode="d" d="M80 482q0 -188 90 -313t250 -158l10 -2q47 -9 99 -9q51 0 98 9l11 2q111 25 180 107v-118h160v1438h-160v-592q-70 83 -183 107l-9 2q-47 9 -97 9t-96 -8l-10 -3q-161 -32 -252 -157t-91 -314zM240 482q0 156 74 239q75 83 215 83t214 -83q75 -83 75 -238v-2 q0 -155 -75 -238q-74 -83 -214 -83t-215 83q-74 83 -74 239z" />
<glyph unicode="e" d="M80 474q3 -217 127 -345q125 -129 332 -129q138 0 247 56t166 156l-144 70q-37 -58 -107 -90q-71 -32 -162 -32q-138 0 -214 74q-58 57 -77 152q-2 11 -4 30h734v75q-1 48 -8 95q-28 177 -145 278q-117 100 -296 100q-205 0 -327 -131q-122 -132 -122 -351v-8zM247 565 q2 17 5 30q21 88 76 140q73 69 201 69q227 0 277 -209l2 -7q2 -10 2 -23h-563z" />
<glyph unicode="f" horiz-adv-x="726" d="M80 804h141v-804h160v804h129v160h-129q2 145 70 225q68 81 195 88v160q-193 -8 -307 -136q-115 -128 -118 -337h-141v-160z" />
<glyph unicode="g" d="M80 482q0 -188 90 -313t250 -158l10 -2q48 -9 99 -9t98 9l11 2q111 26 180 107v-173q0 -156 -83 -239q-82 -83 -237 -83q-83 0 -147 24q-83 33 -127 104l-143 -71q59 -105 167 -161q107 -56 250 -56q218 0 349 131t131 351v1018h-160v-116q-70 82 -183 107l-9 2 q-47 8 -97 8t-96 -8l-10 -2q-161 -32 -252 -157q-91 -126 -91 -315zM240 482q0 156 74 239q75 84 215 84q138 0 213 -82q74 -81 76 -233v-15q-2 -152 -76 -234q-75 -81 -213 -81q-140 0 -215 83q-74 84 -74 239z" />
<glyph unicode="h" horiz-adv-x="977" d="M80 0h160v506q5 144 69 221t180 77q120 0 184 -83q65 -84 65 -239v-482h159v482q0 156 -58 271q-59 115 -165 169q-83 41 -185 41q-103 0 -185 -41q-35 -19 -64 -48v563h-160v-1437z" />
<glyph unicode="i" horiz-adv-x="341" d="M80 1232q0 -38 27 -64q26 -27 63 -27q38 0 64 27q27 26 27 64q0 37 -27 64q-26 26 -64 26q-37 0 -63 -26q-27 -27 -27 -64zM91 0h159v964h-159v-964z" />
<glyph unicode="j" horiz-adv-x="607" d="M80 -360v-160q200 8 318 142q119 134 119 353v988h-160v-988q0 -155 -72 -242q-71 -86 -205 -93zM346 1232q0 -37 27 -64q26 -26 64 -26q37 0 64 26q26 27 26 64t-26 64q-27 26 -64 26q-38 0 -64 -26q-27 -27 -27 -64z" />
<glyph unicode="k" horiz-adv-x="976" d="M80 0h160v286q19 22 91 105l48 56q21 25 23 27l304 -474h190l-377 586l-10 15q2 2 32 38q35 42 76 90q118 141 196 233h-209q-73 -86 -220 -261q-50 -59 -98 -116q-18 -22 -31 -38q-13 -14 -15 -17v907h-160v-1437z" />
<glyph unicode="l" horiz-adv-x="320" d="M80 0h160v1437h-160v-1437z" />
<glyph unicode="m" horiz-adv-x="1635" d="M80 0h160v506q5 144 69 221t180 77q120 0 184 -83q65 -84 65 -239v-482h159v482v24q6 145 70 221q64 77 179 77q121 0 185 -83q64 -84 64 -239v-482h160v482q0 156 -59 271q-58 115 -165 169q-82 41 -185 41q-102 0 -184 -41q-88 -47 -134 -150q-58 101 -154 150 q-83 41 -185 41q-103 0 -185 -41q-35 -19 -64 -48v89h-160v-963z" />
<glyph unicode="n" horiz-adv-x="977" d="M80 0h160v506q5 144 69 221t180 77q120 0 184 -83q65 -84 65 -239v-482h159v482q0 156 -58 271q-59 115 -165 169q-83 41 -185 41q-103 0 -185 -41q-35 -19 -64 -48v89h-160v-963z" />
<glyph unicode="o" d="M80 482q0 -220 122 -351t327 -131t327 131t122 351q0 219 -122 351q-122 131 -327 131t-327 -131q-122 -132 -122 -351zM240 482q0 156 74 239q75 83 215 83t215 -83q74 -83 74 -239t-74 -239q-75 -83 -215 -83t-215 83q-74 83 -74 239z" />
<glyph unicode="p" d="M80 -474h160v592q69 -83 183 -108l10 -2q46 -8 96 -8t97 8l9 2q161 33 252 158t91 314q0 188 -90 313t-250 158q-4 1 -10 2q-48 9 -99 9t-98 -9l-10 -2q-112 -26 -181 -107v117h-160v-1437zM240 481v1q0 156 75 239q74 83 214 83t215 -83q74 -83 74 -239t-74 -239 q-75 -83 -215 -83t-214 83q-75 83 -75 238z" />
<glyph unicode="q" d="M80 482q0 -189 91 -314t252 -158l9 -2q47 -8 97 -8t96 8l10 2q113 25 183 108v-592h160v1437h-160v-117q-69 81 -181 107l-10 2q-47 9 -98 9q-52 0 -99 -9q-6 -1 -10 -2q-160 -33 -250 -158t-90 -313zM240 482q0 156 74 239q75 83 215 83t214 -83q75 -83 75 -239v-1 q0 -155 -75 -238q-74 -83 -214 -83t-215 83q-74 83 -74 239z" />
<glyph unicode="r" horiz-adv-x="584" d="M80 0h160v506q6 137 74 213t190 83v160q-38 -2 -73 -8l-11 -2q-111 -26 -180 -107v117h-160v-962z" />
<glyph unicode="s" horiz-adv-x="897" d="M80 246q15 -104 98 -169q98 -77 269 -77q188 0 287 94q83 78 83 192q0 115 -83 193q-99 94 -287 94q-112 0 -161 41q-18 16 -27 38q-7 17 -7 36q0 20 7 37q9 21 27 37q49 42 161 42q164 0 190 -85l160 12q-16 99 -95 160q-94 73 -255 73q-180 0 -275 -90 q-79 -75 -79 -186q0 -110 79 -185q95 -90 275 -90q210 0 210 -127q0 -126 -210 -126q-183 0 -207 99z" />
<glyph unicode="t" horiz-adv-x="613" d="M80 801l147 -17v-414l-1 -24v-53q0 -132 76 -212q76 -81 200 -81h30v160h-30q-116 0 -116 133v77v25v389l147 17v159l-147 -17v342h-159v-342l-147 17v-159z" />
<glyph unicode="u" horiz-adv-x="977" d="M80 482q0 -156 59 -272q58 -115 165 -169q82 -41 185 -41q102 0 184 41q35 19 65 49v-89h159v962h-159v-506h-1q-5 -144 -69 -221q-64 -76 -179 -76q-121 0 -185 83t-64 239v481h-160v-481z" />
<glyph unicode="v" horiz-adv-x="1042" d="M80 962l345 -962h188l349 962h-170l-272 -752l-270 752h-170z" />
<glyph unicode="w" horiz-adv-x="1540" d="M80 962l278 -962h181l197 673l24 81l218 -754h201l281 962h-166l-215 -736l-213 736h-212l-205 -701l-203 701h-166z" />
<glyph unicode="x" horiz-adv-x="1051" d="M80 0h195l250 358l21 -29l230 -329h195l-338 483l-10 14l326 465h-195l-228 -326l-21 29l-208 297h-195l316 -451l10 -14z" />
<glyph unicode="y" horiz-adv-x="982" d="M80 -316q113 -198 381 -198q201 0 321 120q120 121 120 322v1038h-160v-509q-5 -144 -69 -221t-180 -77q-120 0 -184 84q-65 83 -65 239v484h-159v-484q0 -157 58 -272q59 -115 165 -169q82 -41 185 -41t185 41q34 19 64 48v-161q0 -137 -72 -209q-73 -73 -209 -73 q-168 0 -237 109z" />
<glyph unicode="z" horiz-adv-x="966" d="M80 0h806v160h-591l586 643v161h-788v-160h573l-586 -644v-160z" />
<glyph unicode="{" horiz-adv-x="630" d="M80 712l207 206v9q23 304 110 596l153 -47q-228 -764 0 -1529l-153 -47q-87 292 -110 596v9z" />
<glyph unicode="|" horiz-adv-x="363" d="M80 -196h203v1797h-203v-1797z" />
<glyph unicode="}" horiz-adv-x="630" d="M80 -53q228 765 0 1529l153 47q87 -292 110 -596l1 -9l206 -206l-206 -207l-1 -9q-23 -304 -110 -596z" />
<glyph unicode="~" horiz-adv-x="664" d="M80 641v160q56 -31 126 -26q42 3 126 26t126 26q70 5 126 -26v-160q-56 31 -126 26q-42 -3 -126 -26q-42 -12 -63 -16q-35 -8 -63 -10q-70 -5 -126 26z" />
<glyph unicode="&#xa1;" horiz-adv-x="341" d="M80 1347q0 37 27 64q26 26 63 26q38 0 64 -26q27 -27 27 -64t-27 -64q-26 -26 -64 -26q-37 0 -63 26q-27 27 -27 64zM91 0h159v988h-159v-988z" />
<glyph unicode="&#xa2;" horiz-adv-x="1000" d="M80 721q0 -220 122 -351t327 -131q132 0 234 57t157 162l-146 66q-71 -125 -245 -125q-140 0 -215 83q-74 83 -74 239t74 239q75 83 215 83q173 0 244 -124l145 67q-55 104 -156 160q-102 57 -233 57q-205 0 -327 -131q-122 -132 -122 -351zM323 0h179l175 1442h-179z " />
<glyph unicode="&#xa3;" horiz-adv-x="1180" d="M80 0l142 1114q15 150 133 237t307 87q186 0 304 -84q116 -84 134 -230l-159 -13q-27 167 -279 167q-126 0 -200 -47q-73 -47 -81 -133v-3l-23 -177h306l-21 -159h-305l-17 -130h305l-21 -159h-304l-40 -310h788l-21 -160h-948z" />
<glyph unicode="&#xa4;" horiz-adv-x="929" d="M80 413l118 117q-32 46 -48 103q-12 42 -12 84q0 44 13 87q16 55 47 99l-118 118l80 81l118 -118q44 30 99 46q44 14 89 14q41 0 83 -12q57 -17 102 -48l118 118l80 -81l-117 -117q31 -46 48 -102q12 -42 12 -85q0 -42 -12 -85q-17 -56 -48 -102l117 -117l-80 -81 l-118 118q-45 -32 -101 -48q-42 -12 -85 -12q-42 0 -85 12q-57 16 -102 48l-118 -118zM242 716q0 -28 9 -56q16 -59 57 -100q41 -40 99 -57q29 -8 58 -8t58 8q58 17 99 57q40 41 57 99q9 29 9 58t-9 58q-17 58 -57 99q-41 40 -100 57q-29 8 -58 8t-58 -9q-58 -17 -98 -56 q-39 -40 -56 -98q-10 -30 -10 -60z" />
<glyph unicode="&#xa5;" horiz-adv-x="1281" d="M80 1440l481 -722v-120h-160l-21 -160h181v-438h159v438h160l21 160h-181v117l481 725h-192l-368 -555l-369 555h-192z" />
<glyph unicode="&#xa6;" horiz-adv-x="320" d="M80 371h160v-789h-160v789zM80 789v789h160v-789h-160z" />
<glyph unicode="&#xa7;" horiz-adv-x="1090" d="M80 217l102 8q25 -123 232 -123q112 0 173 40q62 40 62 113q0 72 -62 112q-61 40 -173 40q-164 0 -250 78q-72 65 -72 166t72 166q86 78 250 78q141 0 226 -59t94 -162l3 -28l27 6q144 28 144 144q0 73 -61 113q-62 40 -174 40q-164 0 -249 78q-72 65 -72 166 q0 100 72 166q85 77 249 77q135 0 219 -53q84 -54 99 -150l-102 -8q-26 109 -216 109q-104 0 -162 -37q-57 -37 -57 -104q0 -68 57 -105q58 -37 162 -37q172 0 262 -81q75 -69 75 -174t-75 -173q-90 -81 -262 -81q-178 0 -266 84q-32 31 -50 72q-13 30 -18 62l-4 28l-27 -8 q-64 -17 -92 -57q-22 -31 -22 -72q0 -68 58 -105q57 -37 162 -37q172 0 261 -81q76 -68 76 -173t-76 -174q-89 -81 -261 -81q-175 0 -263 81q-33 31 -51 72q-15 30 -20 64zM434 794l9 -35q11 -39 42 -65q42 -35 118 -46l34 -5l-6 34q-8 41 -40 68q-42 35 -121 44z" />
<glyph unicode="&#xa8;" horiz-adv-x="661" d="M80 1689q0 33 23 56t56 23q32 0 55 -23t23 -56q0 -32 -23 -56q-23 -23 -55 -23q-33 0 -56 23q-23 24 -23 56zM424 1689q0 33 23 56t56 23q32 0 55 -23t23 -56q0 -32 -23 -56q-23 -23 -55 -23q-33 0 -56 23q-23 24 -23 56z" />
<glyph unicode="&#xa9;" horiz-adv-x="1493" d="M80 719q0 332 179 526q179 193 488 193q308 0 487 -193q179 -194 179 -526q0 -333 -179 -526t-487 -193q-309 0 -488 193t-179 526zM240 719q0 -271 131 -415q130 -144 376 -144q245 0 375 144q131 144 131 415q0 270 -131 415q-130 144 -375 144q-246 0 -376 -144 q-131 -145 -131 -415zM429 719q0 161 90 257t241 96q197 0 284 -155l-145 -67q-43 63 -139 63t-139 -64q-32 -49 -32 -130q0 -82 32 -130q43 -64 139 -64q97 0 139 64l147 -66q-87 -158 -286 -158q-151 0 -241 97q-90 96 -90 257z" />
<glyph unicode="&#xaa;" horiz-adv-x="648" />
<glyph unicode="&#xab;" horiz-adv-x="883" d="M80 721l282 -282l113 113l-170 169l170 169l-113 113zM408 721l283 282l112 -113l-169 -169l169 -169l-112 -113z" />
<glyph unicode="&#xac;" horiz-adv-x="1000" d="M80 667v100h840v-491l-1 -1h-98v392h-741z" />
<glyph unicode="&#xad;" horiz-adv-x="664" d="M80 641h504v160h-504v-160z" />
<glyph unicode="&#xae;" horiz-adv-x="1493" d="M80 719q0 332 179 526q179 193 488 193q308 0 487 -193q179 -194 179 -526q0 -333 -179 -526t-487 -193q-309 0 -488 193t-179 526zM240 719q0 -271 131 -415q130 -144 376 -144q245 0 375 144q131 144 131 415q0 270 -131 415q-130 144 -375 144q-246 0 -376 -144 q-131 -145 -131 -415zM495 380v700h259q112 0 181 -64q70 -64 70 -168q0 -109 -74 -173l-12 -10l95 -285h-169l-78 236h-113v-236h-159zM654 776h109q53 2 72 30q6 10 9 23l1 10v9q0 32 -15 48q-22 24 -76 24h-100v-144z" />
<glyph unicode="&#xaf;" horiz-adv-x="1071" d="M80 1430h911v160h-911v-160z" />
<glyph unicode="&#xb0;" horiz-adv-x="716" d="M80 1164q0 116 81.5 197t197.5 81q115 0 196 -81.5t81 -196.5q0 -114 -82 -196t-197 -82q-117 0 -197 81t-80 197zM150 1163q0 -87 61 -147t148 -60t147 60t60 147t-60.5 148t-146.5 61t-147.5 -61t-61.5 -148z" />
<glyph unicode="&#xb1;" horiz-adv-x="757" d="M80 760h218v-218h160v218h219v160h-219v218h-160v-218h-218v-160zM126 303v160h504v-160h-504z" />
<glyph unicode="&#xb2;" horiz-adv-x="1014" />
<glyph unicode="&#xb3;" horiz-adv-x="1014" />
<glyph unicode="&#xb4;" horiz-adv-x="1024" />
<glyph unicode="&#xb5;" horiz-adv-x="977" d="M80 -475v1438h160v-482q0 -156 64 -239t185 -83q118 0 183 81q64 82 66 233v490h159v-963h-159v83l-39 -26q-13 -9 -26 -16q-82 -41 -184 -41q-103 0 -185 41q-13 6 -27 15l-37 23v-554h-160z" />
<glyph unicode="&#xb6;" horiz-adv-x="996" d="M80 1086q0 157 107.5 253t285.5 96h443v-70h-127v-1365h-82v1365h-166v-1365h-84v738q-174 8 -275.5 102.5t-101.5 245.5z" />
<glyph unicode="&#xb7;" horiz-adv-x="341" d="M80 721q0 37 27 64q26 26 63 26q38 0 64 -26q27 -27 27 -64q0 -38 -27 -64q-26 -27 -64 -27q-37 0 -63 27q-27 26 -27 64z" />
<glyph unicode="&#xb8;" horiz-adv-x="412" d="M80 -319q23 -12 51 -17q21 -4 40 -4q46 0 80 21q54 32 68 102q13 69 -25 119q-24 32 -66 49l-1 50l-102 2l5 -132l39 -8q32 -6 45 -22q10 -14 5 -39q-4 -25 -20 -34q-17 -11 -49 -5q-14 3 -26 9z" />
<glyph unicode="&#xb9;" horiz-adv-x="1014" />
<glyph unicode="&#xba;" horiz-adv-x="718" />
<glyph unicode="&#xbb;" horiz-adv-x="883" d="M80 552l169 169l-169 169l113 113l282 -282l-282 -282zM408 552l113 -113l282 282l-282 282l-113 -113l170 -169z" />
<glyph unicode="&#xbc;" horiz-adv-x="1708" />
<glyph unicode="&#xbd;" horiz-adv-x="1964" />
<glyph unicode="&#xbe;" horiz-adv-x="1708" />
<glyph unicode="&#xbf;" horiz-adv-x="1054" d="M80 417q0 -190 122 -304q121 -113 325 -113q201 0 321 108q120 107 126 293l-160 16q0 -125 -74 -191t-213 -66t-213 66q-74 67 -74 191t74 191q74 66 213 66h80v313h-160v-158l-20 -3q-163 -27 -255 -135q-92 -109 -92 -274zM437 1346q0 37 26 64q27 26 64 26t64 -26 q26 -27 26 -64q0 -38 -26 -64q-27 -27 -64 -27t-64 27q-26 26 -26 64z" />
<glyph unicode="&#xc0;" horiz-adv-x="1336" d="M80 0h169l136 395l6 16h555l141 -411h169l-495 1437h-186zM445 571l223 646l223 -646h-446zM532 1805l48 -185l157 -34l-96 219h-109z" />
<glyph unicode="&#xc1;" horiz-adv-x="1336" d="M80 0h169l136 395l6 16h555l141 -411h169l-495 1437h-186zM445 571l223 646l223 -646h-446zM600 1586l156 34l48 185h-108z" />
<glyph unicode="&#xc2;" horiz-adv-x="1336" d="M80 0h169l136 395l6 16h555l141 -411h169l-495 1437h-186zM445 571l223 646l223 -646h-446zM460 1665l95 -95l119 119l118 -119l95 95l-112 112l-101 69l-102 -69z" />
<glyph unicode="&#xc3;" horiz-adv-x="1336" d="M80 0h169l136 395l5 16h556l141 -411h169l-495 1437h-186zM445 571l223 646l223 -646h-446zM480 1611l6 -5q32 -25 69 -25q36 0 110 34l28 13l29 11q33 12 59 12q28 0 52 -12l23 -11v149l-6 5q-31 25 -69 25q-35 0 -109 -34l-29 -13l-29 -12q-33 -11 -59 -11 q-28 0 -52 11l-23 11v-148z" />
<glyph unicode="&#xc4;" horiz-adv-x="1336" d="M80 0h169l136 395l5 16h556l141 -411h169l-495 1437h-186zM417 1690q0 -32 23 -55q24 -24 56 -24q33 0 56 24q23 23 23 55q0 33 -23 56t-56 23q-32 0 -56 -23q-23 -23 -23 -56zM445 571l223 646l223 -646h-446zM761 1690q0 -32 23 -55q24 -24 56 -24q33 0 56 24 q23 23 23 55q0 33 -23 56t-56 23q-32 0 -56 -23q-23 -23 -23 -56z" />
<glyph unicode="&#xc5;" horiz-adv-x="1336" d="M80 0h169l136 395l6 16h555l141 -411h169l-495 1437h-186zM445 571l223 646l223 -646h-446zM553 1691q0 -47 34 -81q33 -34 81 -34t81 34q34 34 34 81q0 48 -34 82q-33 34 -81 34t-81 -34q-34 -34 -34 -82zM613 1691q0 23 16 39q16 17 39 17t39 -17q16 -16 16 -39 q0 -22 -16 -39q-16 -16 -39 -16t-39 16q-16 17 -16 39z" />
<glyph unicode="&#xc6;" horiz-adv-x="1678" d="M80 0h169l142 411h302v-411h905v160h-746v479h505v160h-505v479h746v160h-905h-118zM445 571l247 712l1 -712h-248z" />
<glyph unicode="&#xc7;" horiz-adv-x="1287" d="M80 718q0 -313 141 -503q141 -189 391 -213l4 -1l4 -116l41 -8q32 -7 45 -23q11 -15 6 -41q-5 -25 -20 -35q-18 -11 -51 -4q-15 3 -27 8l-46 -94q24 -11 53 -17q21 -4 42 -4q46 0 82 21q56 34 70 106q14 71 -26 123q-25 33 -68 50l-1 33q166 10 293 98q127 87 194 237 l-148 60q-108 -237 -380 -237q-209 0 -324 147q-115 146 -115 413q0 266 115 412q115 147 324 147q270 0 378 -234l148 61q-73 161 -208 247q-136 85 -318 85q-277 0 -438 -193t-161 -525z" />
<glyph unicode="&#xc8;" horiz-adv-x="1065" d="M80 0h905v160h-745v479h505v160h-505v479h745v160h-905v-1438zM429 1805l48 -185l156 -34l-96 219h-108z" />
<glyph unicode="&#xc9;" horiz-adv-x="1065" d="M80 0h905v160h-745v479h505v160h-505v479h745v160h-905v-1438zM432 1586l156 34l49 185h-109z" />
<glyph unicode="&#xca;" horiz-adv-x="1065" d="M80 0h905v160h-745v479h505v160h-505v479h745v160h-905v-1438zM324 1665l95 -95l119 118l119 -118l95 95l-112 112l-102 69l-101 -69z" />
<glyph unicode="&#xcb;" horiz-adv-x="1065" d="M80 0h905v160h-745v479h505v160h-505v479h745v160h-905v-1438zM282 1689q0 -32 23 -55t56 -23q32 0 55 23t23 55q0 33 -23 56t-55 23q-33 0 -56 -23t-23 -56zM626 1689q0 -32 23 -55t56 -23q32 0 55 23t23 55q0 33 -23 56t-55 23q-33 0 -56 -23t-23 -56z" />
<glyph unicode="&#xcc;" horiz-adv-x="364" d="M80 1804l48 -184l156 -35l-95 219h-109zM114 0h160v1437h-160v-1437z" />
<glyph unicode="&#xcd;" horiz-adv-x="364" d="M80 1585l156 35l48 184h-108zM91 0h159v1437h-159v-1437z" />
<glyph unicode="&#xce;" horiz-adv-x="588" d="M80 1665l95 -96l119 119l119 -119l95 96l-113 112l-101 68l-102 -68zM209 0h159v1437h-159v-1437z" />
<glyph unicode="&#xcf;" horiz-adv-x="661" d="M80 1689q0 -32 23 -56q23 -23 56 -23q32 0 55 23q23 24 23 56q0 33 -23 56t-55 23q-33 0 -56 -23t-23 -56zM251 0h160v1437h-160v-1437zM424 1689q0 -32 23 -56q23 -23 56 -23q32 0 55 23q23 24 23 56q0 33 -23 56t-55 23q-33 0 -56 -23t-23 -56z" />
<glyph unicode="&#xd0;" horiz-adv-x="1360" d="M80 639h123v-639h477q278 0 439 193t161 526q0 332 -161 526q-161 193 -439 193h-477v-639h-123v-160zM363 160v479h232v160h-232v479h317q210 0 325 -146q115 -147 115 -413q0 -267 -115 -413t-325 -146h-317z" />
<glyph unicode="&#xd1;" horiz-adv-x="1101" d="M80 1h160v1138l598 -1139h183v1436h-159v-1137l-599 1138h-183v-1436zM379 1618q27 -21 58 -21q33 0 103 32l30 14q17 7 31 12q34 12 63 12q31 0 58 -13v114q-27 22 -58 22q-32 0 -103 -33l-30 -13q-17 -8 -30 -12q-35 -12 -64 -12q-31 0 -58 13v-115z" />
<glyph unicode="&#xd2;" horiz-adv-x="1329" d="M80 719q0 -333 157 -526t427 -193q271 0 428 193t157 526t-157 526t-428 193q-270 0 -427 -193t-157 -526zM240 719q0 266 111 413q111 146 313 146q203 0 314 -146q111 -147 111 -413q0 -267 -111 -413t-314 -146q-202 0 -313 146t-111 413zM560 1805l49 -185l156 -34 l-96 219h-109z" />
<glyph unicode="&#xd3;" horiz-adv-x="1329" d="M80 719q0 -333 157 -526t427 -193q271 0 428 193t157 526t-157 526t-428 193q-270 0 -427 -193t-157 -526zM240 719q0 266 111 413q111 146 313 146q203 0 314 -146q111 -147 111 -413q0 -267 -111 -413t-314 -146q-202 0 -313 146t-111 413zM564 1586l156 34l48 185 h-108z" />
<glyph unicode="&#xd4;" horiz-adv-x="1329" d="M80 719q0 -333 157 -526t427 -193q271 0 428 193t157 526t-157 526t-428 193q-270 0 -427 -193t-157 -526zM240 719q0 266 111 413q111 146 313 146q203 0 314 -146q111 -147 111 -413q0 -267 -111 -413t-314 -146q-202 0 -313 146t-111 413zM456 1665l95 -95l119 119 l118 -119l96 95l-113 112l-101 69l-102 -69z" />
<glyph unicode="&#xd5;" horiz-adv-x="1329" d="M80 719q0 -333 157 -526t427 -193q271 0 428 193t157 526t-157 526t-428 193q-270 0 -427 -193t-157 -526zM240 719q0 266 111 413q111 146 313 146q203 0 314 -146q111 -147 111 -413q0 -267 -111 -413t-314 -146q-202 0 -313 146t-111 413zM476 1611l6 -5 q32 -25 69 -25q36 0 110 34l29 13l29 11q32 12 59 12t51 -12l23 -11v149l-6 5q-31 25 -68 25q-36 0 -110 -35l-29 -12l-29 -12q-33 -11 -59 -11q-27 0 -51 11l-24 11v-148z" />
<glyph unicode="&#xd6;" horiz-adv-x="1329" d="M80 719q0 -333 157 -526t427 -193q271 0 428 193t157 526t-157 526t-428 193q-270 0 -427 -193t-157 -526zM240 719q0 266 111 413q111 146 313 146q203 0 314 -146q111 -147 111 -413q0 -267 -111 -413t-314 -146q-202 0 -313 146t-111 413zM414 1690q0 -33 23 -56 t55 -23q33 0 56 23t23 56q0 32 -23 55t-56 23q-32 0 -55 -23t-23 -55zM758 1690q0 -33 23 -56t55 -23q33 0 56 23t23 56q0 32 -23 55t-56 23q-32 0 -55 -23t-23 -55z" />
<glyph unicode="&#xd7;" horiz-adv-x="852" d="M80 470l247 247l-247 248l99 98l247 -247l248 247l98 -99l-247 -247l247 -247l-99 -99l-247 247l-247 -247z" />
<glyph unicode="&#xd8;" horiz-adv-x="1329" d="M80 719q0 -273 109 -456q108 -181 302 -238l-22 -179h179l19 155q269 0 425 194q157 193 157 524q0 274 -109 457q-108 181 -302 238l21 179h-178l-19 -155q-269 0 -426 -194q-156 -193 -156 -525zM240 719q0 260 105 406q105 145 298 153l-133 -1091q-131 49 -200 185 q-70 138 -70 347zM686 161l132 1091q131 -49 201 -185q70 -138 70 -348q0 -259 -105 -405q-106 -145 -298 -153z" />
<glyph unicode="&#xd9;" horiz-adv-x="1225" d="M80 591q0 -273 143 -432t390 -159q246 0 389 159t143 432v847h-159v-847q0 -205 -98 -318t-275 -113q-178 0 -276 113q-97 113 -97 318v847h-160v-847zM509 1805l48 -185l156 -34l-96 219h-108z" />
<glyph unicode="&#xda;" horiz-adv-x="1225" d="M80 591q0 -273 143 -432t390 -159q246 0 389 159t143 432v847h-159v-847q0 -205 -98 -318t-275 -113q-178 0 -276 113q-97 113 -97 318v847h-160v-847zM512 1586l156 34l49 185h-109z" />
<glyph unicode="&#xdb;" horiz-adv-x="1225" d="M80 591q0 -273 143 -432t390 -159q246 0 389 159t143 432v847h-159v-847q0 -205 -98 -318t-275 -113q-178 0 -276 113q-97 113 -97 318v847h-160v-847zM404 1665l95 -95l119 118l119 -118l95 95l-112 112l-102 69l-101 -69z" />
<glyph unicode="&#xdc;" horiz-adv-x="1225" d="M80 591q0 -273 143 -432t390 -159q246 0 389 159t143 432v847h-159v-847q0 -205 -98 -318t-275 -113q-178 0 -276 113q-97 113 -97 318v847h-160v-847zM362 1689q0 -32 23 -55t56 -23q32 0 55 23t23 55q0 33 -23 56t-55 23q-33 0 -56 -23t-23 -56zM706 1689q0 -32 23 -55 t56 -23q32 0 55 23t23 55q0 33 -23 56t-55 23q-33 0 -56 -23t-23 -56z" />
<glyph unicode="&#xdd;" horiz-adv-x="1281" d="M80 1440l481 -722v-718h159v715l481 725h-192l-368 -555l-369 555h-192zM540 1588l156 34l48 185h-108z" />
<glyph unicode="&#xde;" horiz-adv-x="862" d="M80 0h160v362h238q139 0 221 96q83 97 83 260q0 162 -83 259q-82 97 -221 97h-238v363h-160v-1437zM240 521v393h238q61 0 97 -37q48 -49 48 -159t-48 -159q-36 -38 -97 -38h-238z" />
<glyph unicode="&#xdf;" horiz-adv-x="1040" d="M80 3h160v815q0 298 127 405q44 38 103 51q22 5 46 6q9 1 19 1h17q99 0 134 -25q29 -22 29 -81q0 -51 -53 -110q-21 -24 -54 -53l-30 -26l-31 -25q-73 -60 -108 -95q-77 -74 -77 -194q0 -121 80 -196q81 -74 213 -74q145 0 145 -121t-145 -121q-119 0 -141 78l-159 -16 q18 -102 99 -162t201 -60q137 0 221 77q84 78 84 204t-84 203t-221 77q-86 0 -117 45q-11 16 -15 37q-1 8 -1 16l-1 7v6q0 52 29 79l3 3q26 27 95 83l19 16l20 16q22 19 39 34q44 40 73 77q76 94 76 195q0 266 -323 266q-79 0 -148 -21q-89 -27 -154 -87 q-170 -156 -170 -515v-815z" />
<glyph unicode="&#xe0;" d="M80 482q0 -188 90 -313t250 -158l10 -2q48 -9 99 -9t98 9l11 2q111 25 180 107v-118h160v963h-160v-117q-70 83 -183 107l-9 2q-47 9 -97 9q-51 0 -96 -8l-10 -3q-161 -32 -252 -157t-91 -314zM240 482q0 156 74 239q75 83 215 83t214 -83q75 -83 75 -238v-2 q0 -155 -75 -238q-74 -83 -214 -83t-215 83q-74 83 -74 239zM425 1331l48 -185l157 -34l-96 219h-109z" />
<glyph unicode="&#xe1;" d="M80 482q0 -188 90 -313t250 -158l10 -2q48 -9 99 -9t98 9l11 2q111 25 180 107v-118h160v963h-160v-117q-70 83 -183 107l-9 2q-47 9 -97 9t-96 -8l-10 -3q-161 -32 -252 -157t-91 -314zM240 482q0 156 74 239q75 83 215 83t214 -83q75 -83 75 -238v-2q0 -155 -75 -238 q-74 -83 -214 -83t-215 83q-74 83 -74 239zM428 1112l157 34l48 185h-109z" />
<glyph unicode="&#xe2;" d="M80 482q0 -188 90 -313t250 -158l10 -2q48 -9 99 -9t98 9l11 2q111 25 180 107v-118h160v963h-160v-117q-70 83 -183 107l-9 2q-47 9 -97 9t-96 -8l-10 -3q-161 -32 -252 -157t-91 -314zM240 482q0 156 74 239q75 83 215 83t214 -83q75 -83 75 -238v-2q0 -155 -75 -238 q-74 -83 -214 -83t-215 83q-74 83 -74 239zM321 1189l95 -95l118 119l119 -119l95 95l-112 112l-102 69l-101 -69z" />
<glyph unicode="&#xe3;" d="M80 482q0 -188 90 -313t250 -158l10 -2q48 -9 99 -9t98 9l11 2q111 25 180 107v-118h160v963h-160v-117q-70 83 -183 107l-9 2q-47 9 -97 9q-51 0 -96 -8l-10 -3q-161 -32 -252 -157t-91 -314zM240 482q0 156 74 239q75 83 215 83t214 -83q75 -83 75 -238v-2 q0 -155 -75 -238q-74 -83 -214 -83t-215 83q-74 83 -74 239zM341 1137l6 -5q32 -25 69 -25q36 0 110 34l28 13l29 11q33 11 59 11q28 0 52 -11l23 -11v148l-6 5q-32 25 -69 25q-36 0 -110 -34l-28 -13l-29 -11q-33 -11 -59 -11q-28 0 -52 11l-23 11v-148z" />
<glyph unicode="&#xe4;" d="M80 482q0 -188 90 -313t250 -158l10 -2q48 -9 99 -9t98 9l11 2q111 25 180 107v-118h160v963h-160v-117q-70 83 -183 107l-9 2q-47 9 -97 9q-51 0 -96 -8l-10 -3q-161 -32 -252 -157t-91 -314zM240 482q0 156 74 239q75 83 215 83t214 -83q75 -83 75 -238v-2 q0 -155 -75 -238q-74 -83 -214 -83t-215 83q-74 83 -74 239zM278 1215q0 -32 23 -55t56 -23t56 23t23 55q0 33 -23 56t-56 23t-56 -23t-23 -56zM622 1215q0 -32 23 -55t56 -23q32 0 56 23q23 23 23 55q0 33 -23 56q-24 23 -56 23q-33 0 -56 -23t-23 -56z" />
<glyph unicode="&#xe5;" d="M80 482q0 -188 90 -313t250 -158l10 -2q48 -9 99 -9t98 9l11 2q111 25 180 107v-118h160v963h-160v-117q-70 83 -183 107l-9 2q-47 9 -97 9t-96 -8l-10 -3q-161 -32 -252 -157t-91 -314zM240 482q0 156 74 239q75 83 215 83t214 -83q75 -83 75 -238v-2q0 -155 -75 -238 q-74 -83 -214 -83t-215 83q-74 83 -74 239zM414 1220q0 -48 34 -82q33 -34 81 -34t81 34q34 34 34 82q0 47 -34 81q-33 34 -81 34t-81 -34q-34 -34 -34 -81zM474 1220q0 22 16 39q16 16 39 16t39 -16q16 -17 16 -39q0 -23 -16 -39q-16 -17 -39 -17t-39 17q-16 16 -16 39z " />
<glyph unicode="&#xe6;" horiz-adv-x="1796" d="M80 482q0 -220 122 -351t327 -131q145 0 252 68l38 24v-91h164v90l38 -24q109 -67 256 -67q139 0 248 56q108 56 166 156l-144 70q-38 -58 -108 -90q-71 -32 -162 -32q-137 0 -214 74q-58 57 -76 152l-6 30h735v75q0 49 -8 95q-28 177 -145 278q-117 100 -296 100 q-227 0 -349 -157l-20 -25l-19 25q-123 157 -350 157q-205 0 -327 -131q-122 -132 -122 -351zM240 482q0 156 74 239q75 83 215 83t215 -83q74 -83 74 -239v-25q-6 -144 -81 -221q-74 -76 -208 -76q-140 0 -215 83q-74 83 -74 239zM983 565l7 30q49 209 277 209t277 -209 l8 -30h-569z" />
<glyph unicode="&#xe7;" horiz-adv-x="1000" d="M80 480q0 -201 104 -330q104 -128 283 -148l4 -121l41 -8q33 -7 46 -23q11 -15 6 -41t-21 -35q-18 -11 -51 -4q-15 3 -26 8l-46 -94q24 -11 53 -17q21 -4 41 -4q47 0 83 21q56 34 69 106q14 71 -25 123q-25 33 -68 50l-1 37q244 18 348 218l-146 66q-71 -126 -245 -126 q-140 0 -215 83q-74 83 -74 239t74 239q75 83 215 83q173 0 244 -124l145 68q-55 103 -156 160q-102 56 -233 56q-205 0 -327 -131t-122 -351z" />
<glyph unicode="&#xe8;" d="M80 474q3 -217 127 -345q125 -129 332 -129q138 0 247 56t166 156l-144 70q-37 -58 -107 -90q-71 -32 -162 -32q-138 0 -214 74q-58 57 -77 152q-2 11 -4 30h734v75q-1 48 -8 95q-28 177 -145 278q-117 100 -296 100q-205 0 -327 -131q-122 -132 -122 -351v-8zM247 565 l5 30q21 88 76 140q73 69 201 69q227 0 277 -209l2 -7q2 -11 2 -23h-563zM425 1329l48 -185l157 -34l-96 219h-109z" />
<glyph unicode="&#xe9;" d="M80 474q3 -217 127 -345q125 -129 332 -129q138 0 247 56t166 156l-144 70q-37 -58 -107 -90q-71 -32 -162 -32q-138 0 -214 74q-58 57 -77 152q-2 11 -4 30h734v75q-1 48 -8 95q-28 177 -145 278q-117 100 -296 100q-205 0 -327 -131q-122 -132 -122 -351v-8zM247 565 q2 17 5 30q21 88 76 140q73 69 201 69q227 0 277 -209l2 -7q2 -10 2 -23h-563zM428 1110l157 34l48 185h-109z" />
<glyph unicode="&#xea;" d="M80 474q3 -217 127 -345q125 -129 332 -129q138 0 247 56t166 156l-144 70q-37 -58 -107 -90q-71 -32 -162 -32q-138 0 -214 74q-58 57 -77 152q-2 11 -4 30h734v75q-1 48 -8 95q-28 177 -145 278q-117 100 -296 100q-205 0 -327 -131q-122 -132 -122 -351v-8zM247 565 q2 17 5 30q21 88 76 140q73 69 201 69q227 0 277 -209l2 -7q2 -10 2 -23h-563zM321 1189l95 -95l118 119l119 -119l95 95l-112 112l-102 69l-101 -69z" />
<glyph unicode="&#xeb;" d="M80 474q3 -217 127 -345q125 -129 332 -129q138 0 247 56t166 156l-144 70q-37 -58 -107 -90q-71 -32 -162 -32q-138 0 -214 74q-58 57 -77 152q-2 11 -4 30h734v75q-1 48 -8 95q-28 177 -145 278q-117 100 -296 100q-205 0 -327 -131q-122 -132 -122 -351v-8zM247 565 q2 17 5 30q21 88 76 140q73 69 201 69q227 0 277 -209l2 -7q2 -10 2 -23h-563zM278 1213q0 -33 23 -56t56 -23t56 23t23 56q0 32 -23 55t-56 23t-56 -23t-23 -55zM622 1213q0 -33 23 -56t56 -23q32 0 56 23q23 23 23 56q0 32 -23 55q-24 23 -56 23q-33 0 -56 -23t-23 -55z " />
<glyph unicode="&#xec;" horiz-adv-x="364" d="M80 1329l48 -185l156 -34l-95 219h-109zM114 0h160v964h-160v-964z" />
<glyph unicode="&#xed;" horiz-adv-x="364" d="M80 1110l156 34l48 185h-108zM91 0h159v964h-159v-964z" />
<glyph unicode="&#xee;" horiz-adv-x="588" d="M80 1189l95 -95l119 118l118 -118l96 95l-113 112l-101 69l-102 -69zM209 0h159v964h-159v-964z" />
<glyph unicode="&#xef;" horiz-adv-x="661" d="M80 1213q0 -32 23 -55t56 -23q32 0 55 23t23 55q0 33 -23 56t-55 23q-33 0 -56 -23t-23 -56zM251 0h160v964h-160v-964zM424 1213q0 -32 23 -55t56 -23q32 0 55 23t23 55q0 33 -23 56t-55 23q-33 0 -56 -23t-23 -56z" />
<glyph unicode="&#xf0;" horiz-adv-x="956" d="M80 426q0 -194 108 -310q109 -116 290 -116t289 116q109 116 109 310q0 380 -161 604q-160 225 -437 235v-160q55 -3 105 -18l49 -15l-125 -85l111 -40l84 80l17 -14q64 -55 108 -141l25 -49l-54 14q-57 16 -120 16q-181 0 -290 -116q-108 -117 -108 -311zM240 426 q0 150 78 216q60 51 160 51t160 -51q78 -66 78 -216q0 -149 -78 -216q-60 -50 -160 -50t-160 50q-78 67 -78 216z" />
<glyph unicode="&#xf1;" horiz-adv-x="977" d="M80 0h160v506q5 144 69 221t180 77q120 0 184 -83q65 -84 65 -239v-482h159v482q0 156 -58 271q-59 115 -165 169q-83 41 -185 41q-103 0 -185 -41q-35 -19 -64 -48v89h-160v-963zM300 1137l7 -5q31 -25 68 -25q36 0 110 34l29 13l29 11q33 11 59 11q27 0 51 -11l24 -11 v148l-6 5q-32 25 -69 25q-36 0 -110 -34l-29 -13l-29 -11q-32 -11 -59 -11t-51 11l-24 11v-148z" />
<glyph unicode="&#xf2;" d="M80 482q0 -220 122 -351t327 -131t327 131t122 351q0 219 -122 351q-122 131 -327 131t-327 -131q-122 -132 -122 -351zM240 482q0 156 74 239q75 83 215 83t215 -83q74 -83 74 -239t-74 -239q-75 -83 -215 -83t-215 83q-74 83 -74 239zM425 1331l48 -185l157 -34 l-96 219h-109z" />
<glyph unicode="&#xf3;" d="M80 482q0 -220 122 -351t327 -131t327 131t122 351q0 219 -122 351q-122 131 -327 131t-327 -131q-122 -132 -122 -351zM240 482q0 156 74 239q75 83 215 83t215 -83q74 -83 74 -239t-74 -239q-75 -83 -215 -83t-215 83q-74 83 -74 239zM428 1112l157 34l48 185h-109z " />
<glyph unicode="&#xf4;" d="M80 482q0 -220 122 -351t327 -131t327 131t122 351q0 219 -122 351q-122 131 -327 131t-327 -131q-122 -132 -122 -351zM240 482q0 156 74 239q75 83 215 83t215 -83q74 -83 74 -239t-74 -239q-75 -83 -215 -83t-215 83q-74 83 -74 239zM321 1191l95 -95l118 118 l119 -118l95 95l-112 112l-102 69l-101 -69z" />
<glyph unicode="&#xf5;" d="M80 482q0 -220 122 -351t327 -131t327 131t122 351q0 219 -122 351q-122 131 -327 131t-327 -131q-122 -132 -122 -351zM240 482q0 156 74 239q75 83 215 83t215 -83q74 -83 74 -239t-74 -239q-75 -83 -215 -83t-215 83q-74 83 -74 239zM341 1137l6 -5q32 -25 69 -25 q36 0 110 34l28 13l29 11q33 11 59 11q28 0 52 -11l23 -11v149l-6 4q-32 26 -69 26q-36 0 -110 -35l-28 -13l-29 -11q-33 -11 -59 -11q-28 0 -52 11l-23 11v-148z" />
<glyph unicode="&#xf6;" d="M80 482q0 -220 122 -351t327 -131t327 131t122 351q0 219 -122 351q-122 131 -327 131t-327 -131q-122 -132 -122 -351zM240 482q0 156 74 239q75 83 215 83t215 -83q74 -83 74 -239t-74 -239q-75 -83 -215 -83t-215 83q-74 83 -74 239zM278 1216q0 -33 23 -56t56 -23 t56 23t23 56q0 32 -23 55t-56 23t-56 -23t-23 -55zM622 1216q0 -33 23 -56t56 -23q32 0 56 23q23 23 23 56q0 32 -23 55t-56 23t-56 -23t-23 -55z" />
<glyph unicode="&#xf7;" horiz-adv-x="664" d="M80 641v160h504v-160h-504zM241 480q0 37 27 64q27 26 64 26t64 -26q26 -27 26 -64q0 -38 -26 -64q-27 -27 -64 -27t-64 27q-27 26 -27 64zM241 962q0 37 27 64q27 26 64 26t64 -26q26 -27 26 -64t-26 -64q-27 -26 -64 -26t-64 26q-27 27 -27 64z" />
<glyph unicode="&#xf8;" d="M80 481q0 -177 81 -299q80 -121 223 -163l-32 -259h179l29 240q192 10 305 140t113 341q0 176 -81 298q-81 121 -223 163l32 259h-179l-29 -239q-192 -11 -305 -140q-113 -131 -113 -341zM240 481q0 140 61 222t177 97l-75 -620q-163 66 -163 301zM580 162l75 619 q163 -65 163 -300q0 -141 -61 -223q-61 -81 -177 -96z" />
<glyph unicode="&#xf9;" horiz-adv-x="977" d="M80 482q0 -156 59 -272q58 -115 165 -169q82 -41 185 -41q102 0 184 41q35 19 65 49v-89h159v962h-159v-506h-1q-5 -144 -69 -221q-64 -76 -179 -76q-121 0 -185 83t-64 239v481h-160v-481zM385 1330l48 -184l156 -34l-96 218h-108z" />
<glyph unicode="&#xfa;" horiz-adv-x="977" d="M80 482q0 -156 59 -272q58 -115 165 -169q82 -41 185 -41q102 0 184 41q35 19 65 49v-89h159v962h-159v-506h-1q-5 -144 -69 -221q-64 -76 -179 -76q-121 0 -185 83t-64 239v481h-160v-481zM388 1112l156 34l49 184h-109z" />
<glyph unicode="&#xfb;" horiz-adv-x="977" d="M80 482q0 -156 59 -272q58 -115 165 -169q82 -41 185 -41q102 0 184 41q35 19 65 49v-89h159v962h-159v-506h-1q-5 -144 -69 -221q-64 -76 -179 -76q-121 0 -185 83t-64 239v481h-160v-481zM280 1191l95 -95l119 118l119 -118l95 95l-112 112l-102 69l-101 -69z" />
<glyph unicode="&#xfc;" horiz-adv-x="977" d="M80 482q0 -156 59 -272q58 -115 165 -169q82 -41 185 -41q102 0 184 41q35 19 65 49v-89h159v962h-159v-506h-1q-5 -144 -69 -221q-64 -76 -179 -76q-121 0 -185 83t-64 239v481h-160v-481zM238 1215q0 -32 23 -55t56 -23q32 0 55 23t23 55q0 33 -23 56t-55 23 q-33 0 -56 -23t-23 -56zM582 1215q0 -32 23 -55t56 -23q32 0 55 23t23 55q0 33 -23 56t-55 23q-33 0 -56 -23t-23 -56z" />
<glyph unicode="&#xfd;" horiz-adv-x="982" d="M80 -315q113 -198 381 -198q201 0 321 120q120 121 120 322v1038h-160v-509q-5 -144 -69 -221t-180 -77q-120 0 -184 84q-65 83 -65 239v484h-159v-484q0 -157 58 -272q59 -115 165 -169q82 -41 185 -41t185 41q34 19 64 48v-161q0 -137 -72 -209q-73 -73 -209 -73 q-168 0 -237 109zM385 1113l156 35l49 184h-109z" />
<glyph unicode="&#xfe;" d="M80 -474h160v592q69 -83 183 -108l9 -2q47 -8 97 -8t96 8l10 2q161 33 252 158t91 314q0 188 -90 313q-91 125 -251 158l-10 2q-47 9 -98 9t-99 -9l-10 -2q-111 -26 -180 -107v594h-160v-1914zM240 481v1q0 156 75 239q74 83 214 83t215 -83q74 -83 74 -239t-74 -239 q-75 -83 -215 -83t-214 83q-75 83 -75 238z" />
<glyph unicode="&#xff;" horiz-adv-x="982" d="M80 -316q113 -198 381 -198q201 0 321 120q120 121 120 322v1038h-160v-509q-5 -144 -69 -221t-180 -77q-120 0 -184 84q-65 83 -65 239v484h-159v-484q0 -157 58 -272q59 -115 165 -169q82 -41 185 -41t185 41q34 19 64 48v-161q0 -137 -72 -209q-73 -73 -209 -73 q-168 0 -237 109zM242 1218q0 -32 23 -56q24 -23 56 -23q33 0 56 23q23 24 23 56q0 33 -23 56t-56 23q-32 0 -56 -23q-23 -23 -23 -56zM586 1218q0 -32 23 -56q23 -23 56 -23t56 23q23 24 23 56q0 33 -23 56t-56 23t-56 -23t-23 -56z" />
<glyph unicode="&#x2c6;" horiz-adv-x="742" d="M80 1079l232 355h118l232 -355h-58l-233 216l-233 -216h-58z" />
<glyph unicode="&#x2dc;" horiz-adv-x="664" d="M80 1251q56 -31 126 -26q27 2 63 10q21 4 63 16q84 23 126 26q70 5 126 -26v160q-56 31 -126 26q-42 -3 -126 -26q-85 -23 -126 -26q-70 -5 -126 26v-160z" />
<glyph unicode="&#x2000;" horiz-adv-x="923" />
<glyph unicode="&#x2001;" horiz-adv-x="1846" />
<glyph unicode="&#x2002;" horiz-adv-x="923" />
<glyph unicode="&#x2003;" horiz-adv-x="1846" />
<glyph unicode="&#x2004;" horiz-adv-x="615" />
<glyph unicode="&#x2005;" horiz-adv-x="461" />
<glyph unicode="&#x2006;" horiz-adv-x="307" />
<glyph unicode="&#x2007;" horiz-adv-x="307" />
<glyph unicode="&#x2008;" horiz-adv-x="230" />
<glyph unicode="&#x2009;" horiz-adv-x="369" />
<glyph unicode="&#x200a;" horiz-adv-x="102" />
<glyph unicode="&#x2010;" horiz-adv-x="664" d="M80 641h504v160h-504v-160z" />
<glyph unicode="&#x2011;" horiz-adv-x="664" d="M80 641h504v160h-504v-160z" />
<glyph unicode="&#x2012;" horiz-adv-x="664" d="M80 641h504v160h-504v-160z" />
<glyph unicode="&#x2013;" horiz-adv-x="664" d="M80 641h504v160h-504v-160z" />
<glyph unicode="&#x2014;" horiz-adv-x="957" d="M80 641h797v160h-797v-160z" />
<glyph unicode="&#x2018;" horiz-adv-x="288" d="M80 1200l128 36v197h-128v-233z" />
<glyph unicode="&#x2019;" horiz-adv-x="288" d="M80 1236l128 -36v233h-128v-197z" />
<glyph unicode="&#x201a;" horiz-adv-x="288" d="M80 88v-248l128 36v212h-128z" />
<glyph unicode="&#x201c;" horiz-adv-x="465" d="M80 1200l128 36v197h-128v-233zM257 1246l128 36v151h-128v-187z" />
<glyph unicode="&#x201d;" horiz-adv-x="465" d="M80 1282l128 -36v187h-128v-151zM257 1236l128 -36v233h-128v-197z" />
<glyph unicode="&#x201e;" horiz-adv-x="465" d="M80 82l128 -36v187h-128v-151zM257 36l128 -36v233h-128v-197z" />
<glyph unicode="&#x2022;" horiz-adv-x="1024" />
<glyph unicode="&#x2026;" horiz-adv-x="1155" d="M80 90q0 38 27 64q26 27 63 27q38 0 64 -27q27 -26 27 -64q0 -37 -27 -63q-26 -27 -64 -27q-37 0 -63 27q-27 26 -27 63zM487 90q0 38 27 64q26 27 64 27q37 0 64 -27q26 -26 26 -64q0 -37 -26 -63q-27 -27 -64 -27q-38 0 -64 27q-27 26 -27 63zM894 90q0 38 27 64 q26 27 64 27q37 0 64 -27q26 -26 26 -64q0 -37 -26 -63q-27 -27 -64 -27q-38 0 -64 27q-27 26 -27 63z" />
<glyph unicode="&#x202f;" horiz-adv-x="369" />
<glyph unicode="&#x2039;" horiz-adv-x="555" d="M80 721l283 -282l112 113l-169 169l169 169l-112 113z" />
<glyph unicode="&#x203a;" horiz-adv-x="555" d="M80 552l113 -113l282 282l-282 282l-113 -113l170 -169z" />
<glyph unicode="&#x205f;" horiz-adv-x="461" />
<glyph unicode="&#x20ac;" horiz-adv-x="1397" d="M80 494l21 160h91l-1 26l-1 39l1 39l1 26h-74l21 159h73l5 19q53 227 203 351q150 125 370 125q182 0 317 -86q136 -86 208 -247l-147 -60q-109 233 -378 233q-149 0 -253 -78q-105 -78 -151 -224l-10 -33h264l-21 -159h-267l-1 -24l-1 -41l1 -41l1 -24h250l-21 -160 h-205l10 -32q46 -146 151 -224q104 -78 253 -78q271 0 379 236l148 -59q-71 -161 -209 -249t-318 -88q-220 0 -370 124q-150 125 -203 351l-5 19h-132z" />
<glyph unicode="&#x2122;" horiz-adv-x="1497" />
<glyph unicode="&#x25fc;" horiz-adv-x="960" d="M0 0v960h960v-960h-960z" />
</font>
</defs>
</svg>
